1 сезон

3 сезон

iTunes

1

iTunes

DUB Netflix

iTunes

13

1 сезон

RePack

30

Deluxe

pack

Легкие деньги

ВАЖНО

ИГРА 18+

pack

RePack

MK11

RePack

jed

RePack

fifa19

RePack

RDR2

RePack

NEED FOR SPEED™ PAYBACK

4 сезон

9 сезон

Бесстыжие 9 сезон

Все сериалы

все сериалы на PB.wtf

RePack

FAR CRY 5

Anonymous, доброй ночи, мы не успеваем до 1 числа собрать деньги на оплату серверов, помогите нам пожалуйста в это трудное время. В качестве благодарности мы отключим Вам всю рекламу на сайте (укажите свой ник в строку Ваше имя)!

×
  
Magnet ссылка

Впусти меня / Låt den rätte komma in (Томас Альфредсон) [2008 г., ужасы, драма, мелодрама, HDRip, Профессиональный многоголосый закадровый "Лицензия R5"] piratbit.pw

Впусти меня через торрент piratbit.pw

Размер: 2.16 GB | Добавлен: 4 года 9 мес. назад | Торрент скачан:11 раз
Скачать  

18-09-2016 18:18 Впусти меня Скачать торрент  

Впусти меня / Låt den rätte komma in
Год выпуска: 2008
Страна: Швеция / EFTI, Sandrew Metronome Distribution Sverige AB, Filmpool Nord
Жанр: ужасы, драма, мелодрама
Продолжительность: 01:54:59
Перевод: Профессиональный многоголосый закадровый (Лицензия R5)

Режиссер: Томас Альфредсон

rating

В ролях: Каре Хедебрант, Лина Леандерссон, Пер Рагнар, Хенрик Даль, Карин Бергкуист, Питер Карлберг, Ика Норд, Микаэль Рахм, Карл-Роберт Линдгрен, Андерс Т. Педу

Описание: Двенадцатилетний Оскар живет в небольшой деревушке неподалеку от Стокгольма. Днем он подвергается насмешкам и терпеливо сносит унизительные пинки и затрещины от одноклассников, зато потом Оскар мечтает о мести.

Однажды ночью Оскар знакомится с девочкой по имени Эли. Она его новая соседка. Два изгоя мгновенно становятся друзьями, Эли учит Оскара храбрости, а Оскар пробуждает в ней жажду любви. Но Эли, увы, этого недостаточно — ее мучает жажда крови.

Качество: HDRip
Формат: AVI
Видео кодек: XviD
Аудио кодек: AC3
Видео: 720x304 (2.37:1), 23.976 fps, XviD build 50 ~2237 kbps avg, 0.43 bit/pixel
Аудио: 48 kHz, AC3 Dolby Digital, 3/2 (L,C,R,l,r) + LFE ch, ~448 kbps

Общее
Полное имя : F:\кино\Впусти меня.2008.HDRip.avi
Формат : AVI
Формат/Информация : Audio Video Interleave
Профиль формата : OpenDML
Размер файла : 2,16 Гбайт
Продолжительность : 1 ч. 54 м.
Общий поток : 2690 Кбит/сек
Программа кодирования : VirtualDubMod 1.5.10.3 | www.virtualdub-fr.org || (build 2550/release)
Библиотека кодирования : VirtualDubMod build 2550/release

Видео
Идентификатор : 0
Формат : MPEG-4 Visual
Профиль формата : Advanced Simple@L5
Параметр BVOP формата : 1
Параметр QPel формата : Нет
Параметр GMC формата : Без точки перехода
Параметр матрицы формата : Default (MPEG)
Идентификатор кодека : XVID
Идентификатор кодека/Подсказка : XviD
Продолжительность : 1 ч. 54 м.
Битрейт : 2232 Кбит/сек
Ширина : 720 пикселей
Высота : 304 пикселя
Соотношение сторон : 2,35:1
Частота кадров : 23,976 (23976/1000) кадра/сек
Цветовое пространство : YUV
Субдискретизация насыщенности : 4:2:0
Битовая глубина : 8 бит
Тип развёртки : Прогрессивная
Метод сжатия : С потерями
Бит/(Пиксели*Кадры) : 0.425
Размер потока : 1,79 Гбайт (83%)
Библиотека кодирования : XviD 1.2.1 (UTC 2008-12-04)

Аудио
Идентификатор : 1
Формат : AC-3
Формат/Информация : Audio Coding 3
Расширение режима : CM (complete main)
Параметр Endianness формата : Big
Идентификатор кодека : 2000
Продолжительность : 1 ч. 54 м.
Вид битрейта : Постоянный
Битрейт : 448 Кбит/сек
Каналы : 6 каналов
Расположение каналов : Front: L C R, Side: L R, LFE
Частота : 48,0 КГц
Частота кадров : 31,250 кадров/сек (1536 spf)
Метод сжатия : С потерями
Размер потока : 367 Мбайт (17%)
Выравнивание : Разделение по промежуткам
Продолжительность промежутка : 42 мс. (1,00 видеокадр)
Время предзагрузки промежутка : 500 мс.

piratbit.pw



Скачать Впусти меня через торрент https://pic.kartinco.top/images/11/89ehs.jpg Скачать фильм Впусти меня через торрент бесплантно в хорошем качестве Описание: Двенадцатилетний Оскар живет в небольшой деревушке неподалеку от Стокгольма. Днем он подвергается насмешкам и терпеливо сносит ... 10 10 2
Торрент: Зарегистрирован [2016-09-18 18:18] · скачан: 11 раз
Статус: √ проверено
Размер: 2.16 GB
Как cкачать? Как скачать Впусти меня через торрент | UTorrent

% Раздел Тема Автор DL S | L
T Фильмы [HD 720p, 1080p] (Хороший звук DUB, MVO) [ 10.65 GB ] Впусти меня / Låt den rätte komma in [2008 BDRip 1080p][MVO][AVO] nn99nn Скачать
1 | 0

28-11-2019 20:33  

Отключить всю рекламу на сайте

    Дорогой пользователь! Огромная просьба, поблагодарите релизера, оцените раздачу и оставьте свои комментарий, если Вы скачали Впусти меня через торрент бесплатно! Внесите свою лепту в развитие PiratBit!
    Комментировать посты могут только пользователи прошедшие не сложную регистрацию
    Показать сообщения:    

    Впусти меня через торрент
    Скачать бесплатно Впусти меня
    Впусти меня скачать торрент
    Впусти меня смотреть онлайн
    Cкачать фильм Впусти меня бесплатно
    Впусти меня скачать торрент в хорошем качестве
    Впусти меня смотреть онлайн бесплатно в хорошем качестве


    Вы не можете начинать темы
    Вы не можете отвечать на сообщения
    Вы не можете редактировать свои сообщения
    Вы не можете удалять свои сообщения
    Вы не можете голосовать в опросах
    Вы не можете прикреплять файлы к сообщениям
    Вы можете скачивать файлы