Ссылка на приватное зеркало нашего сайта всего за 1$. Внимание количество ограничено!!!

2 сезон

iTunes

1 сезон

1

iTunes

iTunes

iTunes

1 сезон

RePack

30

ИГРА 18+

pack

ВАЖНО

!!Акция!!

Alien_RageХит недели

RePack

MK11
pack

Забери бонус

RePack

jed

!!Акция!!

Alien_Rage

RePack

fifa19

RePack

Assassins Creed: Odyssey

RePack

NEED FOR SPEED™ PAYBACK

4 сезон

9 сезон

Бесстыжие 9 сезон

Все сериалы

все сериалы на PB.wtf

RePack

FAR CRY 5
  

С 8 марта, мужчины! (Артем Аксененко ) [2014, мелодрама, комедия, DVDRip] piratbit.pw

С 8 марта, мужчины! через торрент piratbit.pw

Размер: 1.46 GB | Добавлен: 4 года 1 мес. назад | Торрент скачан:163 раза
Скачать  

14-09-2016 20:11 С 8 марта, мужчины! Скачать торрент  

С 8 марта, мужчины!

Год выпуска: 2014
Страна: Россия, Беларусь
Жанр: мелодрама, комедия
Продолжительность: 01:38:33
Перевод: Оригинал [Лицензия]
Режиссер: Артем Аксененко
В ролях: Мария Берсенева (Анна Беркутова), Максим Виторган (Лев Касперский), Светлана Иванова (Виолетта), Михаил Башкатов (друг Константина, молодой ученый), Вера Алентова (Галина Семеновна), Константин Лавиш (Константин Орлов), Ксения Бородина (сотрудница научного центра «Сколково»), Владислав Лисовец (стилист Анны), Стивен Нельсон (друг Константина, молодой ученый), Алексей Климушкин (сотрудник научного центра «Сколково»), Марчин Руй (Итон, жених Анны), Владимир Тишко (сотрудник научного центра «Сколково»)
Описание:
Анна Беркутова - блондинка в броне из мини-юбки и глубокого декольте. Ее оружие - красота, ум и абсолютная уверенность в том, что она знает мужчин. Она ведет важный проект в Сколково и собирается замуж за богатого иностранца. Но в день ее рождения, 8 марта, ее четкая, как финансовый отчет, судьба меняется: Аню бросает жених, ее проект крадут из Сколково, а сама она начинает слышать мысли мужчин. Эта способность сначала доводит ее до отчаяния, а затем открывает широкие возможности...
Рейтинг:

Качество: DVDRip
Формат: AVI
Видео: XviD, 704x400 (16:9), 1664 kbps, 25 fps, 0,236 bpp
Аудио: AC3 / 5.1 / 48 kHz / 448 kbps /

General
Complete name S.8.Marta.Muzchiny.2014.O.DVDRip.avi
Format : AVI
Format/Info : Audio Video Interleave
File size : 1.46 GiB
Duration : 1 h 38 min
Overall bit rate : 2 122 kb/s
Writing library : VirtualDub build 35491/release

Video
ID : 0
Format : MPEG-4 Visual
Format profile : Advanced Simple@L5
Format settings, BVOP : 2
Format settings, QPel : No
Format settings, GMC : No warppoints
Format settings, Matrix : Default (MPEG)
Muxing mode : Packed bitstream
Codec ID : XVID
Codec ID/Hint : XviD
Duration : 1 h 38 min
Bit rate : 1 665 kb/s
Width : 704 pixels
Height : 400 pixels
Display aspect ratio : 16:9
Frame rate : 25.000 FPS
Color space : YUV
Chroma subsampling : 4:2:0
Bit depth : 8 bits
Scan type : Progressive
Compression mode : Lossy
Bits/(Pixel*Frame) : 0.236
Stream size : 1.15 GiB (78%)
Writing library : XviD 73

Audio
ID : 1
Format : AC-3
Format/Info : Audio Coding 3
Mode extension : CM (complete main)
Format settings, Endianness : Big
Codec ID : 2000
Duration : 1 h 38 min
Bit rate mode : Constant
Bit rate : 448 kb/s
Channel(s) : 6 channels
Channel positions : Front: L C R, Side: L R, LFE
Sampling rate : 48.0 kHz
Frame rate : 31.250 FPS (1536 spf)
Compression mode : Lossy
Stream size : 316 MiB (21%)
Alignment : Aligned on interleaves
Interleave, duration : 40 ms (1.00 video frame)
Interleave, preload duration : 512 ms
Скриншоты:
piratbit.pw



Скачать С 8 марта, мужчины! через торрент http://i6.imageban.ru/out/2016/09/14/5a5e0df57554dd2b737f22f3dd0c6655.jpg Скачать фильм С 8 марта, мужчины! через торрент бесплантно в хорошем качестве Описание: Анна Беркутова - блондинка в броне из мини-юбки и глубокого декольте. Ее оружие - красота, ум и абсолютная уверенность в том, что ... 9 10 9
Торрент: Зарегистрирован [2016-09-14 20:11] · скачан: 163 раз
Статус: √ проверено
Размер: 1.46 GB
Как cкачать? Как скачать С 8 марта, мужчины! через торрент | qTorrent

% Раздел Тема Автор DL S | L
Наши фильмы (DVD фильмы) [ 5.62 GB ] С 8 марта мужчины! [2014 DVD9] R5 voovaz Скачать
1 | 0
Наши новые фильмы 2014 [ 1.37 GB ] С 8 марта мужчины! [2014 Россия Беларусь WEB-DLRip] Ворон Скачать
1 | 0

28-11-2019 20:33  

Отключить всю рекламу на сайте

15-09-2016 03:50 С 8 марта, мужчины! Скачать торрент  

бредовый фильмpiratbit.pw



    Дорогой пользователь! Огромная просьба, поблагодарите релизера, оцените раздачу и оставьте свои комментарий, если Вы скачали С 8 марта, мужчины! через торрент бесплатно! Внесите свою лепту в развитие PiratBit!
    Комментировать посты могут только пользователи прошедшие не сложную регистрацию
    Показать сообщения:    

    С 8 марта, мужчины! через торрент
    Скачать бесплатно С 8 марта, мужчины!
    С 8 марта, мужчины! скачать торрент
    С 8 марта, мужчины! смотреть онлайн
    Cкачать фильм С 8 марта, мужчины! бесплатно
    С 8 марта, мужчины! скачать торрент в хорошем качестве
    С 8 марта, мужчины! смотреть онлайн бесплатно в хорошем качестве


    Вы не можете начинать темы
    Вы не можете отвечать на сообщения
    Вы не можете редактировать свои сообщения
    Вы не можете удалять свои сообщения
    Вы не можете голосовать в опросах
    Вы не можете прикреплять файлы к сообщениям
    Вы можете скачивать файлы