Ссылка на приватное зеркало нашего сайта всего за 1$. Внимание количество ограничено!!!

2 сезон

iTunes

iTunes

1

iTunes

iTunes

iTunes

WEBRip

iTunes

30
pack

Вам бонус

ВАЖНО

!!Акция!!

Alien_RageХит недели

RePack

Horizon Zero Dawn

ИГРА 18+

pack

RePack

jed

!!Акция!!

Alien_Rage

RePack

fifa19

RePack

Assassins Creed: Odyssey

RePack

NEED FOR SPEED™ PAYBACK

4 сезон

9 сезон

Бесстыжие 9 сезон

Все сериалы

все сериалы на PB.wtf

RePack

FAR CRY 5
  

Спешите любить (Максим Демченко ) [2014, мелодрама, WEB-DL 1080p] piratbit.pw

Спешите любить через торрент piratbit.pw

Размер: 2.13 GB | Добавлен: 4 года назад | Торрент скачан:56 раз
Скачать  

11-09-2016 13:09 Спешите любить Скачать торрент  

Спешите любить

Год выпуска: 2014
Страна: Россия
Жанр: мелодрама
Продолжительность: 01:29:58
Перевод: Оригинал
Режиссер: Максим Демченко
В ролях: Павел Трубинер, Светлана Иванова, Юлия Мельникова, Кирилл Плетнёв, Денис Яковлев (йог Василий)
Описание:
Летчик Антон отстранен от полетов: из-за развода с женой у него началась неврастения. Жена-стюардесса не хочет оставлять с ним дочку Киру, даже когда сама в рейсе, поэтому Антон забирает ребенка тайком и переезжает в коммуналку. Соседнюю комнату снимает Ася, привыкшая к роскоши, но бросившая богатого мужа, который ей изменил. Атмосфера в квартире напряженная: ни Антон, ни Ася не привыкли к столь тесному соседству. Поначалу они даже воюют и делают друг другу мелкие пакости, но путь от ненависти до любви будет недолгим. И вот уже Ася заботится о маленькой Кире, как о родной, а влюбленный Антон забывает про все заботы. Жили бы они счастливо, если бы раскаявшийся супруг не появился вновь на горизонте Аси, и если бы жена Антона не отобрала у него дочь. За любовь нужно бороться, и героям предстоят тяжелые бои.
Рейтинг:

Качество: WEB-DL 1080p
Формат: MKV
Видео: AVC, 1920x1080 (16:9), 3134 kbps, 25 fps, 0,060 bpp
Аудио: AC3 / 2.0 / 44 kHz / 192 kbps /

General
Unique ID Spechite.liubit.2014.WEB-DL.1080..Files-x.mkv
Format : Matroska
Format version : Version 4 / Version 2
File size : 2.13 GiB
Duration : 1 h 29 min
Overall bit rate : 3 394 kb/s
Writing application : Lavf56.25.101
Writing library : Lavf56.25.101 / Lavf56.25.101

Video
ID : 1
Format : AVC
Format/Info : Advanced Video Codec
Format profile : High@L4
Format settings, CABAC : Yes
Format settings, ReFrames : 2 frames
Codec ID : V_MPEG4/ISO/AVC
Duration : 1 h 29 min
Bit rate : 3 134 kb/s
Width : 1 920 pixels
Height : 1 080 pixels
Display aspect ratio : 16:9
Frame rate mode : Constant
Frame rate : 25.000 FPS
Color space : YUV
Chroma subsampling : 4:2:0
Bit depth : 8 bits
Scan type : Progressive
Bits/(Pixel*Frame) : 0.060
Stream size : 1.97 GiB (92%)
Default : Yes
Forced : No

Audio
ID : 2
Format : AC-3
Format/Info : Audio Coding 3
Mode extension : CM (complete main)
Format settings, Endianness : Big
Codec ID : A_AC3
Duration : 1 h 29 min
Bit rate mode : Constant
Bit rate : 192 kb/s
Channel(s) : 2 channels
Channel positions : Front: L R
Sampling rate : 44.1 kHz
Frame rate : 28.711 FPS (1536 spf)
Compression mode : Lossy
Delay relative to video : -40 ms
Stream size : 124 MiB (6%)
Default : Yes
Forced : No
Скриншоты:
piratbit.pw



Скачать Спешите любить через торрент http://i6.imageban.ru/out/2016/09/11/77222a2b484c6794daca1ccbfb49c615.jpg Скачать фильм Спешите любить через торрент бесплантно в хорошем качестве Описание: Летчик Антон отстранен от полетов: из-за развода с женой у него началась неврастения. Жена-стюардесса не хочет оставлять с ним ... 10 10 1
Торрент: Зарегистрирован [2016-09-11 13:09] · скачан: 56 раз
Статус: √ проверено
Размер: 2.13 GB
Как cкачать? Как скачать Спешите любить через торрент | qTorrent

% Раздел Тема Автор DL S | L
Фильмы (WEB-DL 720p, 1080p) [ 11.26 GB ] Спеши любить / A Walk to Remember [2002 WEB-DL 1080p] [Open Matte] + [MVO] + [VO] killermax2013 Скачать
1 | 0
Наши фильмы (HD, WEB-DL 720p, 1080p) [ 1.7 GB ] Спешите любить [2014 WEB-DL 720p] smaster Скачать
1 | 0
Наши новые фильмы 2014 [ 745 MB ] Спешите любить [2014 МелоWEB-DLRip] Ворон Скачать
1 | 0
Фильмы 2001-2005 [ 2.18 GB ] Спеши любить / A Walk to Remember [2002 BDRip] DUB Ворон Скачать
1 | 0
Фильмы 2001-2005 [ 2.01 GB ] Спеши любить / Памятная прогулка / A Walk to Remember [2001 HDTVRip-AVC] Romeo0502 Скачать
1 | 0
Фильмы (WEB-DL 720p, 1080p) [ 9.92 GB ] Спеши любить / Памятная прогулка / A Walk To Remember [2002 HDTV 1080p] DUB + MVO + VO + Original + Sub rus eng AARRSSEENN Скачать
1 | 0
Фильмы 2001-2005 [ 4.96 GB ] Спеши любить / A Walk to Remember [ 2002Мело BDRip] [720p] stalonе Скачать
1 | 1

28-11-2019 20:33  

Отключить всю рекламу на сайте

    Дорогой пользователь! Огромная просьба, поблагодарите релизера, оцените раздачу и оставьте свои комментарий, если Вы скачали Спешите любить через торрент бесплатно! Внесите свою лепту в развитие PiratBit!
    Комментировать посты могут только пользователи прошедшие не сложную регистрацию
    Показать сообщения:    

    Спешите любить через торрент
    Скачать бесплатно Спешите любить
    Спешите любить скачать торрент
    Спешите любить смотреть онлайн
    Cкачать фильм Спешите любить бесплатно
    Спешите любить скачать торрент в хорошем качестве
    Спешите любить смотреть онлайн бесплатно в хорошем качестве


    Вы не можете начинать темы
    Вы не можете отвечать на сообщения
    Вы не можете редактировать свои сообщения
    Вы не можете удалять свои сообщения
    Вы не можете голосовать в опросах
    Вы не можете прикреплять файлы к сообщениям
    Вы можете скачивать файлы