Ссылка на приватное зеркало нашего сайта всего за 1$. Внимание количество ограничено!!!

2 сезон

iTunes

1 сезон

1

iTunes

iTunes

iTunes

1 сезон

RePack

30

ИГРА 18+

pack

ВАЖНО

!!Акция!!

Alien_RageХит недели

RePack

MK11
pack

Забери бонус

RePack

jed

!!Акция!!

Alien_Rage

RePack

fifa19

RePack

Assassins Creed: Odyssey

RePack

NEED FOR SPEED™ PAYBACK

4 сезон

9 сезон

Бесстыжие 9 сезон

Все сериалы

все сериалы на PB.wtf

RePack

FAR CRY 5
  

Охота жить (Сергей Никоненко) [2014 г., Комедия, WEB-DLRip by _Один_777] piratbit.pw

Охота жить через торрент piratbit.pw

Размер: 743 MB | Добавлен: 4 года 1 мес. назад | Торрент скачан:99 раз
Скачать  

05-09-2016 08:26 Охота жить Скачать торрент  

Охота жить

Год выпуска: 2014
Страна: Россия / TRI A Film Production Company
Жанр: Комедия
Продолжительность: 01:20:43
Субтитры: нет

Режиссер: Сергей Никоненко

В ролях: Станислав Любшин, Нина Усатова, Сергей Никоненко, Валерий Баринов, Александр Гундарев, Алексей Крыченков, Алла Мещерякова, Павел Сборщиков, Юрий Бердников...

Описание: Когда приходит осень жизни, люди начинают задумываться о прожитом. Для кого-то остаток жизни - «словно обглоданный мосол под крыльцом», кто-то мечтает о билетике на второй сеанс - родиться еще разок, а кому-то просто охота жить…

Дополнительная информация: Комедия по рассказам Василия Шукшина «Охота жить», «Билетик на второй сеанс» и «Осенью». Деревенская история из начала 1970-х годов - о человеческих взаимоотношениях и том, как по-разному люди переживают наступление «осени жизни».


Сэмпл: http://sendfile.su/1263008

Присутствует реклама!!!

Качество: WEB-DLRip
Формат: AVI
Видео кодек: XviD
Аудио кодек: МР3
Видео: 640x352 (1.82:1), 25 fps, XviD build 73 ~1148 kbps avg, 0.20 bit/pixel
Аудио: 48 kHz, MPEG Layer 3, 2 ch, ~128.00 kbps avg
Общее
Полное имя : D:\Ohota.gyt'.2014.WEB-DLRip.740.[Один 777].avi
Формат : AVI
Формат/Информация : Audio Video Interleave
Размер файла : 743 Мбайт
Продолжительность : 1 ч. 20 м.
Общий поток : 1287 Кбит/сек
Программа кодирования : VirtualDubMod 1.5.10.3 | www.virtualdub-fr.org || (build 2550/release)
Библиотека кодирования : VirtualDubMod build 2550/release

Видео
Идентификатор : 0
Формат : MPEG-4 Visual
Профиль формата : Advanced Simple@L5
Параметр BVOP формата : 1
Параметр QPel формата : Нет
Параметр GMC формата : Без точки перехода
Параметр матрицы формата : Default (H.263)
Идентификатор кодека : XVID
Идентификатор кодека/Подсказка : XviD
Продолжительность : 1 ч. 20 м.
Битрейт : 1149 Кбит/сек
Ширина : 640 пикселей
Высота : 352 пикселя
Соотношение сторон : 16:9
Частота кадров : 25,000 кадров/сек
Цветовое пространство : YUV
Субдискретизация насыщенности : 4:2:0
Битовая глубина : 8 бит
Тип развёртки : Прогрессивная
Метод сжатия : С потерями
Бит/(Пиксели*Кадры) : 0.204
Размер потока : 663 Мбайт (89%)
Библиотека кодирования : XviD 73

Аудио
Идентификатор : 1
Формат : MPEG Audio
Версия формата : Version 1
Профиль формата : Layer 3
Идентификатор кодека : 55
Идентификатор кодека/Подсказка : MP3
Продолжительность : 1 ч. 20 м.
Вид битрейта : Постоянный
Битрейт : 128 Кбит/сек
Каналы : 2 канала
Частота : 48,0 КГц
Метод сжатия : С потерями
Размер потока : 73,9 Мбайт (10%)
Выравнивание : Соединение по промежуткам
Продолжительность промежутка : 40 мс. (1,00 видеокадр)
Время предзагрузки промежутка : 504 мс.
Библиотека кодирования : LAME3.99r
Настройки программы : -m s -V 4 -q 2 -lowpass 17 -b 128
piratbit.pw



Скачать Охота жить через торрент http://s09.radikal.ru/i182/1609/7e/06edb3fccc9d.jpg Скачать фильм Охота жить через торрент бесплантно в хорошем качестве Описание: Когда приходит осень жизни, люди начинают задумываться о прожитом. Для кого-то остаток жизни - «словно обглоданный мосол под ... 10 10 8
Info! Золотая раздача, скачанное не засчитывается.
Торрент: Зарегистрирован [2016-09-05 08:26] · скачан: 99 раз
Статус: √ проверено
Размер: 743 MB
Как cкачать? Как скачать Охота жить через торрент | qTorrent

% Раздел Тема Автор DL S | L
Наши новые фильмы 2014 [ 1.48 GB ] Охота жить [2014 WEB-DLRip by _Один_777] Один 777 Скачать
1 | 0

28-11-2019 20:33  

Отключить всю рекламу на сайте

    Дорогой пользователь! Огромная просьба, поблагодарите релизера, оцените раздачу и оставьте свои комментарий, если Вы скачали Охота жить через торрент бесплатно! Внесите свою лепту в развитие PiratBit!
    Комментировать посты могут только пользователи прошедшие не сложную регистрацию
    Показать сообщения:    

    Охота жить через торрент
    Скачать бесплатно Охота жить
    Охота жить скачать торрент
    Охота жить смотреть онлайн
    Cкачать фильм Охота жить бесплатно
    Охота жить скачать торрент в хорошем качестве
    Охота жить смотреть онлайн бесплатно в хорошем качестве


    Вы не можете начинать темы
    Вы не можете отвечать на сообщения
    Вы не можете редактировать свои сообщения
    Вы не можете удалять свои сообщения
    Вы не можете голосовать в опросах
    Вы не можете прикреплять файлы к сообщениям
    Вы можете скачивать файлы