Ссылка на приватное зеркало нашего сайта всего за 1$. Внимание количество ограничено!!!

2 сезон

iTunes

1 сезон

1

iTunes

iTunes

iTunes

1 сезон

RePack

30

ИГРА 18+

pack

ВАЖНО

!!Акция!!

Alien_RageХит недели

RePack

MK11
pack

Забери бонус

RePack

jed

!!Акция!!

Alien_Rage

RePack

fifa19

RePack

Assassins Creed: Odyssey

RePack

NEED FOR SPEED™ PAYBACK

4 сезон

9 сезон

Бесстыжие 9 сезон

Все сериалы

все сериалы на PB.wtf

RePack

FAR CRY 5
  

Охота жить (Сергей Никоненко) [2014 г., Комедия, WEB-DLRip by _Один_777] piratbit.pw

Охота жить через торрент piratbit.pw

Размер: 1.48 GB | Добавлен: 4 года 1 мес. назад | Торрент скачан:96 раз
Скачать  

05-09-2016 07:54 Охота жить Скачать торрент  

Охота жить

Год выпуска: 2014
Страна: Россия / TRI A Film Production Company
Жанр: Комедия
Продолжительность: 01:20:43
Субтитры: нет

Режиссер: Сергей Никоненко

В ролях: Станислав Любшин, Нина Усатова, Сергей Никоненко, Валерий Баринов, Александр Гундарев, Алексей Крыченков, Алла Мещерякова, Павел Сборщиков, Юрий Бердников...

Описание: Когда приходит осень жизни, люди начинают задумываться о прожитом. Для кого-то остаток жизни - «словно обглоданный мосол под крыльцом», кто-то мечтает о билетике на второй сеанс - родиться еще разок, а кому-то просто охота жить…

Дополнительная информация: Комедия по рассказам Василия Шукшина «Охота жить», «Билетик на второй сеанс» и «Осенью». Деревенская история из начала 1970-х годов - о человеческих взаимоотношениях и том, как по-разному люди переживают наступление «осени жизни».


Сэмпл: http://sendfile.su/1263000

Присутствует реклама!!!

Качество: WEB-DLRip
Формат: AVI
Видео кодек: XviD
Аудио кодек: AC3
Видео: 720x400 (1.80:1), 25 fps, XviD build 73 ~2414 kbps avg, 0.34 bit/pixel
Аудио: 48 kHz, AC3 Dolby Digital, 2/0 (L,R) ch, ~192 kbps
Общее
Полное имя : D:\Ohota.gyt'.2014.WEB-DLRip.1400.[Один 777].avi
Формат : AVI
Формат/Информация : Audio Video Interleave
Размер файла : 1,48 Гбайт
Продолжительность : 1 ч. 20 м.
Общий поток : 2616 Кбит/сек
Программа кодирования : VirtualDubMod 1.5.10.3 | www.virtualdub-fr.org || (build 2550/release)
Библиотека кодирования : VirtualDubMod build 2550/release

Видео
Идентификатор : 0
Формат : MPEG-4 Visual
Профиль формата : Advanced Simple@L5
Параметр BVOP формата : 1
Параметр QPel формата : Нет
Параметр GMC формата : Без точки перехода
Параметр матрицы формата : Default (H.263)
Идентификатор кодека : XVID
Идентификатор кодека/Подсказка : XviD
Продолжительность : 1 ч. 20 м.
Битрейт : 2415 Кбит/сек
Ширина : 720 пикселей
Высота : 400 пикселей
Соотношение сторон : 16:9
Частота кадров : 25,000 кадров/сек
Цветовое пространство : YUV
Субдискретизация насыщенности : 4:2:0
Битовая глубина : 8 бит
Тип развёртки : Прогрессивная
Метод сжатия : С потерями
Бит/(Пиксели*Кадры) : 0.335
Размер потока : 1,36 Гбайт (92%)
Библиотека кодирования : XviD 73

Аудио
Идентификатор : 1
Формат : AC-3
Формат/Информация : Audio Coding 3
Расширение режима : CM (complete main)
Параметр Endianness формата : Big
Идентификатор кодека : 2000
Продолжительность : 1 ч. 20 м.
Вид битрейта : Постоянный
Битрейт : 192 Кбит/сек
Каналы : 2 канала
Расположение каналов : Front: L R
Частота : 48,0 КГц
Частота кадров : 31,250 кадров/сек (1536 spf)
Метод сжатия : С потерями
Размер потока : 111 Мбайт (7%)
Выравнивание : Разделение по промежуткам
Продолжительность промежутка : 40 мс. (1,00 видеокадр)
Время предзагрузки промежутка : 500 мс.
piratbit.pw



Скачать Охота жить через торрент http://s09.radikal.ru/i182/1609/7e/06edb3fccc9d.jpg Скачать фильм Охота жить через торрент бесплантно в хорошем качестве Описание: Когда приходит осень жизни, люди начинают задумываться о прожитом. Для кого-то остаток жизни - «словно обглоданный мосол под ... 10 10 5
Info! Золотая раздача, скачанное не засчитывается.
Торрент: Зарегистрирован [2016-09-05 07:54] · скачан: 96 раз
Статус: √ проверено
Размер: 1.48 GB
Как cкачать? Как скачать Охота жить через торрент | qTorrent

% Раздел Тема Автор DL S | L
Наши новые фильмы 2014 [ 743 MB ] Охота жить [2014 WEB-DLRip by _Один_777] Один 777 Скачать
1 | 0

28-11-2019 20:33  

Отключить всю рекламу на сайте

    Дорогой пользователь! Огромная просьба, поблагодарите релизера, оцените раздачу и оставьте свои комментарий, если Вы скачали Охота жить через торрент бесплатно! Внесите свою лепту в развитие PiratBit!
    Комментировать посты могут только пользователи прошедшие не сложную регистрацию
    Показать сообщения:    

    Охота жить через торрент
    Скачать бесплатно Охота жить
    Охота жить скачать торрент
    Охота жить смотреть онлайн
    Cкачать фильм Охота жить бесплатно
    Охота жить скачать торрент в хорошем качестве
    Охота жить смотреть онлайн бесплатно в хорошем качестве


    Вы не можете начинать темы
    Вы не можете отвечать на сообщения
    Вы не можете редактировать свои сообщения
    Вы не можете удалять свои сообщения
    Вы не можете голосовать в опросах
    Вы не можете прикреплять файлы к сообщениям
    Вы можете скачивать файлы