1 сезон

1 сезон

iTunes

1

КиноПоиск HD

Кинопоиск HD

iTunes

13

1 сезон

RePack

30

Ultimate

ВАЖНО

ИГРА 18+

pack

RePack

MK11
pack

Легкие деньги

RePack

jed

RePack

fifa19

RePack

RDR2

RePack

NEED FOR SPEED™ PAYBACK

4 сезон

9 сезон

Бесстыжие 9 сезон

Все сериалы

все сериалы на PB.wtf

RePack

FAR CRY 5
  
Magnet ссылка

Азартные игры / Reindeer Games (Джон Франкенхаймер ) (Режиссёрская версия / Director's Cut) [2000, фэнтези, боевик, триллер, BDRip 720p от _denis_100 / NNNB] 2xAVO + Original + Sub (Eng) piratbit.pw

Азартные игры через торрент piratbit.pw

Размер: 6.48 GB | Добавлен: 4 года 7 мес. назад | Торрент скачан:27 раз
Скачать  

04-09-2016 18:03 Азартные игры Скачать торрент  

Азартные игры / Reindeer Games
Режиссёрская версия / Director's Cut


Год выпуска: 2000
Страна: США
Жанр: фэнтези, боевик, триллер, драма, мелодрама, криминал, приключения, семейный

Продолжительность: 02:04:35
Перевод: Авторский одноголосый

Субтитры: английские,
Режиссер: Джон Франкенхаймер
В ролях: Бен Аффлек , Гэри Синиз , Шарлиз Терон , Джеймс Фрейн , Дана Стаблфилд , Марк Эчесон , Том Хитон , Айзек Хейз , Майкл Санчик , Дуглас Артурс , Дин Рэй , Рон Сов
Описание:
Ловушки расставлены. Для дерзкого ограбления банде головорезов нужен некий Ник, знакомый с охранной системой процветающего казино. Вскоре он должен выйти из тюрьмы.

R - Лицам до 17 лет обязательно присутствие взрослого
Качество: BDRip 720p
Контейнер (Расширение): MKV
Видео: 1280x542, 5528 Кбит/сек, 23,976 кадр/сек, 0,332 Бит/[Пиксели*Кадры]
Аудио №1: русский / AC3 / 5.1 / 48 kHz / 640 kbps / |Авторский одноголосый, Гаврилов|
Аудио №2: русский / AC3 / 5.1 / 48 kHz / 640 kbps / |Авторский одноголосый, Гаевский|
Аудио №3: английский / AC3 / 5.1 / 48 kHz / 640 kbps /
Навигация по главам(Чаптеры): естьАвтор рипа: Сообщество: Авторские переводы отдельно:

Код:

Format                                   : Matroska
Format version                           : Version 2
File size                                : 6.48 GiB
Duration                                 : 2 h 4 min
Overall bit rate                         : 7 448 kb/s
Movie name                               : Reindeer Games.(2000).BDRip.720p.[denis100].Director's Cut
Encoded date                             : UTC 2016-09-04 16:28:43
Writing application                      : mkvmerge v5.8.0 ('No Sleep / Pillow') built on Sep  2 2012 15:37:04
Writing library                          : libebml v1.2.3 + libmatroska v1.3.0

Video
ID                                       : 1
Format                                   : AVC
Format/Info                              : Advanced Video Codec
Format profile                           : High@L4.1
Format settings, CABAC                   : Yes
Format settings, ReFrames                : 11 frames
Codec ID                                 : V_MPEG4/ISO/AVC
Duration                                 : 2 h 4 min
Bit rate                                 : 5 528 kb/s
Width                                    : 1 280 pixels
Height                                   : 542 pixels
Display aspect ratio                     : 2.35:1
Frame rate mode                          : Constant
Frame rate                               : 23.976 (24000/1001) FPS
Color space                              : YUV
Chroma subsampling                       : 4:2:0
Bit depth                                : 8 bits
Scan type                                : Progressive
Bits/(Pixel*Frame)                       : 0.332
Stream size                              : 4.68 GiB (72%)
Title                                    : Reindeer Games.(2000).BDRip.720p.[denis100].Director's Cut
Writing library                          : x264 core 148 r2705 3f5ed56
Encoding settings                        : cabac=1 / ref=11 / deblock=1:-3:-3 / analyse=0x3:0x133 / me=umh / subme=11 / psy=1 / psy_rd=1.00:0.15 / mixed_ref=1 / me_range=48 / chroma_me=1 / trellis=2 / 8x8dct=1 / cqm=0 / deadzone=21,11 / fast_pskip=0 / chroma_qp_offset=-3 / threads=6 / lookahead_threads=1 / sliced_threads=0 / nr=0 / decimate=1 / interlaced=0 / bluray_compat=0 / constrained_intra=0 / bframes=12 / b_pyramid=2 / b_adapt=2 / b_bias=0 / direct=3 / weightb=1 / open_gop=0 / weightp=2 / keyint=240 / keyint_min=23 / scenecut=40 / intra_refresh=0 / rc=2pass / mbtree=0 / bitrate=5528 / ratetol=1.0 / qcomp=0.60 / qpmin=0 / qpmax=69 / qpstep=4 / cplxblur=20.0 / qblur=0.5 / ip_ratio=1.40 / pb_ratio=1.30 / aq=1:0.80
Language                                 : English
Default                                  : Yes
Forced                                   : No

Audio #1
ID                                       : 2
Format                                   : AC-3
Format/Info                              : Audio Coding 3
Mode extension                           : CM (complete main)
Format settings, Endianness              : Big
Codec ID                                 : A_AC3
Duration                                 : 2 h 4 min
Bit rate mode                            : Constant
Bit rate                                 : 640 kb/s
Channel(s)                               : 6 channels
Channel positions                        : Front: L C R, Side: L R, LFE
Sampling rate                            : 48.0 kHz
Frame rate                               : 31.250 FPS (1536 spf)
Compression mode                         : Lossy
Stream size                              : 570 MiB (9%)
Title                                    : AVO, Гаврилов
Language                                 : Russian
Default                                  : Yes
Forced                                   : No

Audio #2
ID                                       : 3
Format                                   : AC-3
Format/Info                              : Audio Coding 3
Mode extension                           : CM (complete main)
Format settings, Endianness              : Big
Codec ID                                 : A_AC3
Duration                                 : 2 h 4 min
Bit rate mode                            : Constant
Bit rate                                 : 640 kb/s
Channel(s)                               : 6 channels
Channel positions                        : Front: L C R, Side: L R, LFE
Sampling rate                            : 48.0 kHz
Frame rate                               : 31.250 FPS (1536 spf)
Compression mode                         : Lossy
Stream size                              : 570 MiB (9%)
Title                                    : AVO, Гаевский
Language                                 : Russian
Default                                  : No
Forced                                   : No

Audio #3
ID                                       : 4
Format                                   : AC-3
Format/Info                              : Audio Coding 3
Mode extension                           : CM (complete main)
Format settings, Endianness              : Big
Codec ID                                 : A_AC3
Duration                                 : 2 h 4 min
Bit rate mode                            : Constant
Bit rate                                 : 640 kb/s
Channel(s)                               : 6 channels
Channel positions                        : Front: L C R, Side: L R, LFE
Sampling rate                            : 48.0 kHz
Frame rate                               : 31.250 FPS (1536 spf)
Compression mode                         : Lossy
Stream size                              : 570 MiB (9%)
Language                                 : English
Default                                  : No
Forced                                   : No

Text
ID                                       : 5
Format                                   : UTF-8
Codec ID                                 : S_TEXT/UTF8
Codec ID/Info                            : UTF-8 Plain Text
Language                                 : English
Default                                  : No
Forced                                   : No

Menu
00:00:00.000                             : en:00:00:00.000
00:12:37.214                             : en:00:12:37.214
00:21:46.635                             : en:00:21:46.635
00:29:44.240                             : en:00:29:44.240
00:37:55.773                             : en:00:37:55.773
00:43:04.123                             : en:00:43:04.123
00:48:25.110                             : en:00:48:25.110
00:56:07.112                             : en:00:56:07.112
01:03:29.347                             : en:01:03:29.347
01:09:12.020                             : en:01:09:12.020
01:12:03.902                             : en:01:12:03.902
01:18:07.599                             : en:01:18:07.599
01:30:04.439                             : en:01:30:04.439
01:36:52.720                             : en:01:36:52.720
01:42:32.563                             : en:01:42:32.563
01:56:15.591                             : en:01:56:15.591

x264 [info]: frame I:1273 Avg QP:14.04 size:104823
x264 [info]: frame P:37548 Avg QP:16.13 size: 48159
x264 [info]: frame B:140408 Avg QP:18.03 size: 22944
x264 [info]: consecutive B-frames: 1.7% 3.2% 5.3% 22.1% 11.5% 43.0% 4.1% 6.8% 0.6% 0.5% 0.3% 0.6% 0.4%
piratbit.pw



Скачать Азартные игры через торрент http://i1.imageban.ru/out/2016/09/04/da6f16ef95ea42300d6b09dec7de9863.jpg Скачать фильм Азартные игры через торрент бесплантно в хорошем качестве Описание:Ловушки расставлены. Для дерзкого ограбления банде головорезов нужен некий Ник, знакомый с охранной системой процветающего казино. ... 10 10 3
Info! Золотая раздача, скачанное не засчитывается.
Торрент: Зарегистрирован [2016-09-04 18:03] · скачан: 27 раз
Статус: √ проверено
Размер: 6.48 GB
Как cкачать? Как скачать Азартные игры через торрент | UTorrent

% Раздел Тема Автор DL S | L
Фильмы с авторской озвучкой [ 3.64 GB ] Азартные игры / Reindeer Games [2000 BDRip 1080p] [Режиссёрская версия / Director's Cut] [AVO] killermax2013 Скачать
3 | 0
Фильмы до 2000 г. [ 1.46 GB ] Азартные игры / Reindeer Games [2000 DVDRip] [Open Matte / Театральная версия] [DVO] killermax2013 Скачать
1 | 0
Фильмы с авторской озвучкой [ 15.35 GB ] Азартные игры / Reindeer Games [2000 BDRip 1080p by msltel] 2 x AVO msltel Скачать
1 | 0
Фильмы с авторской озвучкой [ 5.16 GB ] Азартные игры / Reindeer Games [2000 BDRip 720p by msltel] 2 x AVO msltel Скачать
1 | 0
Фильмы до 2000 г. [ 4.37 GB ] Азартные игры / Reindeer Games [2000 BDRip-AVC] Dub + AVO + VO + Original Eng + Sub -Lexx- Скачать
1 | 0
Фильмы до 2000 г. [ 1.9 GB ] Азартные игры / Reindeer Games [2000 BDRip DUB лицензия] lev1244v Скачать
1 | 0
Фильмы до 2000 г. [ 2.18 GB ] Азартные игры / Reindeer Games [2000 BDRip] -=BIGBOSS=- Скачать
1 | 0

28-11-2019 20:33  

Отключить всю рекламу на сайте

    Дорогой пользователь! Огромная просьба, поблагодарите релизера, оцените раздачу и оставьте свои комментарий, если Вы скачали Азартные игры через торрент бесплатно! Внесите свою лепту в развитие PiratBit!
    Комментировать посты могут только пользователи прошедшие не сложную регистрацию
    Показать сообщения:    

    Азартные игры через торрент
    Скачать бесплатно Азартные игры
    Азартные игры скачать торрент
    Азартные игры смотреть онлайн
    Cкачать фильм Азартные игры бесплатно
    Азартные игры скачать торрент в хорошем качестве
    Азартные игры смотреть онлайн бесплатно в хорошем качестве


    Вы не можете начинать темы
    Вы не можете отвечать на сообщения
    Вы не можете редактировать свои сообщения
    Вы не можете удалять свои сообщения
    Вы не можете голосовать в опросах
    Вы не можете прикреплять файлы к сообщениям
    Вы можете скачивать файлы