Ссылка на приватное зеркало нашего сайта всего за 1$. Внимание количество ограничено!!!

2 сезон

iTunes

1 сезон

1

iTunes

iTunes

iTunes

1 сезон

RePack

30

ИГРА 18+

pack

ВАЖНО

!!Акция!!

Alien_RageХит недели

RePack

MK11
pack

Забери бонус

RePack

jed

!!Акция!!

Alien_Rage

RePack

fifa19

RePack

Assassins Creed: Odyssey

RePack

NEED FOR SPEED™ PAYBACK

4 сезон

9 сезон

Бесстыжие 9 сезон

Все сериалы

все сериалы на PB.wtf

RePack

FAR CRY 5
  

Вилли Вонка и шоколадная фабрика / Willy Wonka & the Chocolate Factory (Мэл Стюарт) [1971 г., мюзикл, фэнтези, семейный, BDRip] 2 x MVO piratbit.pw

Вилли Вонка и шоколадная фабрика через торрент piratbit.pw

Размер: 2.18 GB | Добавлен: 4 года 1 мес. назад | Торрент скачан:41 раз
Скачать  

04-09-2016 10:13 Вилли Вонка и шоколадная фабрика Скачать торрент  

Вилли Вонка и шоколадная фабрика / Willy Wonka & the Chocolate Factory
Год выпуска: 1971
Страна: США
Жанр: мюзикл, фэнтези, семейный
Продолжительность: 01:39:45
Перевод: Профессиональный (многоголосый)
Субтитры: Русские, английские (.srt)

Режиссер: Мэл Стюарт
Продюссер: Стэн Маргулис, Дэвид Л. Волпер
Сценарий: Роальд Даль, Дэвид Зельцер

Бюджет: $3 000 000
Премьера в мире: 30 июня 1971



В ролях: Джин Уайлдер, Джек Альбертсон, Питер Острам, Рой Киннер, Джули Доун Коул, Леонард Стоун, Денис Никерсон, Нора Денни, Парис Теммен, Урсула Райт, Майкл Боллнер, Дайэна Саул, Обри Вудс, Дэвид Баттли, Гюнтер Майснер, Питер Капелла, Вернер Хейкинг, Питер Стюарт

Описание: Эксцентричный кондитер Вилли Вонка способен осуществить мечты любого ребенка. В качестве коммерческого приема он спрятал пять золотых билетов в шоколадные батончики и решил испытать честность победителей. Но во время тура по стране лакомств необходимо соблюдать твердые правила, иначе не будет самой главной награды — пожизненного обеспечения шоколадом Вилли Вонка.

Качество: BDRip
Формат: AVI
Видео кодек: XviD
Аудио кодек: AC3
Видео: XviD, 2086 Кбит/с, 720x400, 23.976 кадр/с
Аудио#1: AC3, 6 ch, 448 Кбит/с, 48 kHz | Профессиональный многоголосый (Карусель)
Аудио#2: AC3, 2 ch, 192 Кбит/с, 48 kHz | Профессиональный многоголосый (Варус-Видео)
Аудио#3: AC3, 6 ch, 384 Кбит/с, 48 kHz | Английский
Релиз от: Koenig
Общее
Полное имя : Willy Wonka.1971.BDRip.avi
Формат : AVI
Формат/Информация : Audio Video Interleave
Профиль формата : OpenDML
Размер файла : 2,18 Гбайт
Продолжительность : 1 ч. 39 м.
Общий поток : 3133 Кбит/сек
Программа кодирования : VirtualDubMod 1.5.10.2 (build 2540/release)
Библиотека кодирования : VirtualDubMod build 2540/release

Видео
Идентификатор : 0
Формат : MPEG-4 Visual
Профиль формата : Advanced Simple@L5
Параметр BVOP формата : 1
Параметр QPel формата : Нет
Параметр GMC формата : Без точки перехода
Параметр матрицы формата : Выборочная
Идентификатор кодека : XVID
Идентификатор кодека/Подсказка : XviD
Продолжительность : 1 ч. 39 м.
Битрейт : 2086 Кбит/сек
Ширина : 720 пикселей
Высота : 400 пикселей
Соотношение сторон : 16:9
Частота кадров : 23,976 (23976/1000) кадра/сек
Цветовое пространство : YUV
Субдискретизация насыщенности : 4:2:0
Битовая глубина : 8 бит
Тип развёртки : Прогрессивная
Метод сжатия : С потерями
Бит/(Пиксели*Кадры) : 0.302
Размер потока : 1,45 Гбайт (67%)
Библиотека кодирования : XviD 1.2.0.dev47 (UTC 2006-11-01)

Аудио #1
Идентификатор : 1
Формат : AC-3
Формат/Информация : Audio Coding 3
Расширение режима : CM (complete main)
Параметр Endianness формата : Big
Идентификатор кодека : 2000
Продолжительность : 1 ч. 39 м.
Вид битрейта : Постоянный
Битрейт : 448 Кбит/сек
Каналы : 6 каналов
Расположение каналов : Front: L C R, Side: L R, LFE
Частота : 48,0 КГц
Частота кадров : 31,250 кадров/сек (1536 spf)
Метод сжатия : С потерями
Размер потока : 320 Мбайт (14%)
Выравнивание : Разделение по промежуткам
Продолжительность промежутка : 42 мс. (1,00 видеокадр)
Время предзагрузки промежутка : 500 мс.

Аудио #2
Идентификатор : 2
Формат : AC-3
Формат/Информация : Audio Coding 3
Расширение режима : CM (complete main)
Параметр Endianness формата : Big
Идентификатор кодека : 2000
Продолжительность : 1 ч. 39 м.
Вид битрейта : Постоянный
Битрейт : 192 Кбит/сек
Каналы : 2 канала
Расположение каналов : Front: L R
Частота : 48,0 КГц
Частота кадров : 31,250 кадров/сек (1536 spf)
Метод сжатия : С потерями
Размер потока : 137 Мбайт (6%)
Выравнивание : Разделение по промежуткам
Продолжительность промежутка : 42 мс. (1,00 видеокадр)
Время предзагрузки промежутка : 500 мс.

Аудио #3
Идентификатор : 3
Формат : AC-3
Формат/Информация : Audio Coding 3
Расширение режима : CM (complete main)
Параметр Endianness формата : Big
Идентификатор кодека : 2000
Продолжительность : 1 ч. 39 м.
Вид битрейта : Постоянный
Битрейт : 384 Кбит/сек
Каналы : 6 каналов
Расположение каналов : Front: L C R, Side: L R, LFE
Частота : 48,0 КГц
Частота кадров : 31,250 кадров/сек (1536 spf)
Метод сжатия : С потерями
Размер потока : 274 Мбайт (12%)
Выравнивание : Разделение по промежуткам
Продолжительность промежутка : 42 мс. (1,00 видеокадр)
Время предзагрузки промежутка : 500 мс.

Вилли Вонка и шоколадная фабрика скачать торрент

piratbit.pw



Скачать Вилли Вонка и шоколадная фабрика через торрент http://pic1.kartinco.top/images/10/72gqx.jpg Скачать фильм Вилли Вонка и шоколадная фабрика через торрент бесплантно в хорошем качестве Описание: Эксцентричный кондитер Вилли Вонка способен осуществить мечты любого ребенка. В качестве коммерческого приема он спрятал пять ... 10 10 2
Торрент: Зарегистрирован [2016-09-04 10:13] · скачан: 41 раз
Статус: √ проверено
Размер: 2.18 GB
Как cкачать? Как скачать Вилли Вонка и шоколадная фабрика через торрент | qTorrent

28-11-2019 20:33  

Отключить всю рекламу на сайте

    Дорогой пользователь! Огромная просьба, поблагодарите релизера, оцените раздачу и оставьте свои комментарий, если Вы скачали Вилли Вонка и шоколадная фабрика через торрент бесплатно! Внесите свою лепту в развитие PiratBit!
    Комментировать посты могут только пользователи прошедшие не сложную регистрацию
    Показать сообщения:    

    Вилли Вонка и шоколадная фабрика через торрент
    Скачать бесплатно Вилли Вонка и шоколадная фабрика
    Вилли Вонка и шоколадная фабрика скачать торрент
    Вилли Вонка и шоколадная фабрика смотреть онлайн
    Cкачать фильм Вилли Вонка и шоколадная фабрика бесплатно
    Вилли Вонка и шоколадная фабрика скачать торрент в хорошем качестве
    Вилли Вонка и шоколадная фабрика смотреть онлайн бесплатно в хорошем качестве


    Вы не можете начинать темы
    Вы не можете отвечать на сообщения
    Вы не можете редактировать свои сообщения
    Вы не можете удалять свои сообщения
    Вы не можете голосовать в опросах
    Вы не можете прикреплять файлы к сообщениям
    Вы можете скачивать файлы