1 сезон

1 сезон

iTunes

1

iTunes

Кинопоиск HD

iTunes

13

1 сезон

RePack

30

Deluxe

ВАЖНО

ИГРА 18+

pack

RePack

MK11
pack

Легкие деньги

RePack

jed

RePack

fifa19

RePack

RDR2

RePack

NEED FOR SPEED™ PAYBACK

4 сезон

9 сезон

Бесстыжие 9 сезон

Все сериалы

все сериалы на PB.wtf

RePack

FAR CRY 5
  
Magnet ссылка

Токио! / Tokyo! (Чжун Хо Пон, Леос Каракс, Мишель Гондри) [2008 г., фэнтези, драма, комедия, BDRip] MVO piratbit.pw

Токио! через торрент piratbit.pw

Размер: 2.18 GB | Добавлен: 4 года 8 мес. назад | Торрент скачан:70 раз
Скачать  

04-09-2016 06:26 Токио! Скачать торрент  

Токио! / Tokyo!
Год выпуска: 2008
Страна: Германия, Франция, Япония, Корея Южная
Жанр: фэнтези, драма, комедия
Продолжительность: 01:52:00
Перевод: Профессиональный (многоголосый) [R5]

Режиссер: Чжун Хо Пон, Леос Каракс, Мишель Гондри
Продюссер: Энн Перно-Савада, Мичико Ёситакэ, Реми Бура
Сценарий: Каролин Шампетье, Джан Фукумото, Масами Иномото

Премьера в мире: 14 мая 2008



В ролях: Ю Аои, ЙошиЙоши Аракава, Жан-Франсуа Бальмер, Джули Дрейфус, Теруюки Кагава, Рё Касэ, Дени Лаван, Ютака Мацусигэ, Аяко Фуджитани, Аюми Ито, Нао Омори, Сатоси Цумабуки, Кен Мицуйси, Юно Иригучи, Рие Минемура, Бен Химура, Кендзиро Ишимару, Тадзиро Тамура, Юня Асо, Маю Харада, Мотоми Макигути, Томое Юра, Акира Осаки

Описание: Три совершенно разные истории, общее у которых лишь одно: место действия — мегаполис Токио. Первая «Дизайн интерьера» повествует о молодых людях, приехавших покорять столицу Японии. Акира мечтает стать выдающимся кинематографистом, а его девушка Хироко ищет свое жизненное предназначение и находит его неожиданно фантастическим образом. Вторая «Дерьмо» о «существе из канализации», безумном получеловеке-полузвере, пожирающем исключительно цветы и деньги и терроризирующем весь город. И последняя «Сотрясающийся Токио» о парне Теруюку. Он хикикомори. Так в Японии называют молодых людей, стремящихся к изоляции от внешнего мира, ведущих затворнической образ жизни. Все меняется, когда в дверь Теруюку стучится любовь в образе симпатичной разносчицы пиццы…

Качество: BDRip
Формат: AVI
Видео кодек: XviD
Аудио кодек: AC3
Видео: XviD, 2328 Кбит/с, 720x384, 24 кадр/с
Аудиo1: АС3, 6 ch, 448 Кбит/с, 48 kHz
Релиз от: Koenig
Общее
Полное имя : Tokyo.2008.BDRip.avi
Формат : AVI
Формат/Информация : Audio Video Interleave
Профиль формата : OpenDML
Размер файла : 2,18 Гбайт
Продолжительность : 1 ч. 51 м.
Общий поток : 2788 Кбит/сек
Программа кодирования : VirtualDubMod 1.5.10.2 (build 2540/release)
Библиотека кодирования : VirtualDubMod build 2540/release

Видео
Идентификатор : 0
Формат : MPEG-4 Visual
Профиль формата : Advanced Simple@L5
Параметр BVOP формата : 1
Параметр QPel формата : Нет
Параметр GMC формата : Без точки перехода
Параметр матрицы формата : Default (MPEG)
Идентификатор кодека : XVID
Идентификатор кодека/Подсказка : XviD
Продолжительность : 1 ч. 51 м.
Битрейт : 2328 Кбит/сек
Ширина : 720 пикселей
Высота : 384 пикселя
Соотношение сторон : 1,85:1
Частота кадров : 24,000 кадра/сек
Цветовое пространство : YUV
Субдискретизация насыщенности : 4:2:0
Битовая глубина : 8 бит
Тип развёртки : Прогрессивная
Метод сжатия : С потерями
Бит/(Пиксели*Кадры) : 0.351
Размер потока : 1,82 Гбайт (83%)
Библиотека кодирования : XviD 1.2.0.dev47 (UTC 2006-11-01)

Аудио
Идентификатор : 1
Формат : AC-3
Формат/Информация : Audio Coding 3
Расширение режима : CM (complete main)
Параметр Endianness формата : Big
Идентификатор кодека : 2000
Продолжительность : 1 ч. 51 м.
Вид битрейта : Постоянный
Битрейт : 448 Кбит/сек
Каналы : 6 каналов
Расположение каналов : Front: L C R, Side: L R, LFE
Частота : 48,0 КГц
Частота кадров : 31,250 кадров/сек (1536 spf)
Метод сжатия : С потерями
Размер потока : 359 Мбайт (16%)
Выравнивание : Разделение по промежуткам
Продолжительность промежутка : 42 мс. (1,00 видеокадр)
Время предзагрузки промежутка : 500 мс.

Токио! скачать торрент

piratbit.pw



Скачать Токио! через торрент https://pic1.kartinco.top/images/10/8kchd.jpg Скачать фильм Токио! через торрент бесплантно в хорошем качестве Описание: Три совершенно разные истории, общее у которых лишь одно: место действия — мегаполис Токио. Первая «Дизайн интерьера» повествует ... 5 10 1
Торрент: Зарегистрирован [2016-09-04 06:26] · скачан: 70 раз
Статус: √ проверено
Размер: 2.18 GB
Как cкачать? Как скачать Токио! через торрент | UTorrent

% Раздел Тема Автор DL S | L
Фильмы (Blu-ray, BD-Remux, HDDVD) [ 25.29 GB ] Разборки в маленьком Токио / Showdown In Little Tokyo [1991 Blu-Ray Remux 1080p] 2xDUB MVO DVO 5xAVO 2xMVO Леонид Ильич Скачать
1 | 0
Аниме [HD 720p, 1080p] [ 4.37 GB ] Однажды в Токио / Tokyo Godfathers [2003 аниме мультфильм BDRip 720p от еnvy / NNNB] DUB MVO еnvy Скачать
15 | 0

28-11-2019 20:33  

Отключить всю рекламу на сайте

04-09-2016 06:38 Токио! Скачать торрент  

Что это за жесть на 3 скрине... надо смотретьpiratbit.pw



04-09-2016 08:25 Токио! Скачать торрент  

заинтриговало-забираем-спасибоpiratbit.pw



04-09-2016 13:09 Токио! Скачать торрент  

Вот это дичь девочка-стул, заверните возьму две piratbit.pw



    Дорогой пользователь! Огромная просьба, поблагодарите релизера, оцените раздачу и оставьте свои комментарий, если Вы скачали Токио! через торрент бесплатно! Внесите свою лепту в развитие PiratBit!
    Комментировать посты могут только пользователи прошедшие не сложную регистрацию
    Показать сообщения:    

    Токио! через торрент
    Скачать бесплатно Токио!
    Токио! скачать торрент
    Токио! смотреть онлайн
    Cкачать фильм Токио! бесплатно
    Токио! скачать торрент в хорошем качестве
    Токио! смотреть онлайн бесплатно в хорошем качестве


    Вы не можете начинать темы
    Вы не можете отвечать на сообщения
    Вы не можете редактировать свои сообщения
    Вы не можете удалять свои сообщения
    Вы не можете голосовать в опросах
    Вы не можете прикреплять файлы к сообщениям
    Вы можете скачивать файлы