Ссылка на приватное зеркало всего за 1$. Внимание количество ограничено!!!

iTunes

iTunes

iTunes

1

iTunes

iTunes

iTunes

iTunes

iTunes

30
pack

$ от Little Big

ВАЖНО

!!Акция!!

Alien_RageХит недели

RePack

Resident Evil 21

ИГРА 18+

pack

RePack

jed

!!Акция!!

Alien_Rage

RePack

fifa19

RePack

Assassins Creed: Odyssey

RePack

NEED FOR SPEED™ PAYBACK

4 сезон

9 сезон

Бесстыжие 9 сезон

Все сериалы

все сериалы на PB.wtf

RePack

FAR CRY 5
  

Влюбленные женщины / Women in Love (Кен Расселл) [1969 г., драма, мелодрама, BDRip] 2 x MVO piratbit.pw

Влюбленные женщины через торрент piratbit.pw

Размер: 2.18 GB | Добавлен: 3 года 10 мес. назад | Торрент скачан:19 раз
Скачать  

02-09-2016 05:37 Влюбленные женщины Скачать торрент  

Влюбленные женщины / Women in Love
Год выпуска: 1969
Страна: Великобритания
Жанр: драма, мелодрама
Продолжительность: 02:10:46
Перевод: Профессиональный (многоголосый)

Режиссер: Кен Расселл
Продюссер: Ларри Крамер, Рой Бейрд, Мартин Розен
Сценарий: Ларри Крамер, Дэвид Герберт Лоуренс

Бюджет: $1 250 000
Премьера в мире: 20 февраля 1970



В ролях: Алан Бэйтс, Оливер Рид, Гленда Джексон, Дженни Линден, Элинор Брон, Алан Уэбб, Владек Шейбал, Кэтрин Уиллмер, Фиби Николлс, Шэрон Герни, Кристофер Гейбл, Майкл Гоф, Норма Шеббир, Нике Арриги, Джеймс Лоренсон, Майкл Грэм Кокс, Ричард Хеффер, Майкл Гаррэтт, Лесли Андерсон, Чарльз Уоркмэн, Барри Флетчер, Брайан Осборн, Кристофер Фергюсон, Ричард Фицджералд

Описание: История двух жаждущих страстей сестер Гудрун и Урсулы и их возлюбленных мужчин Джеральда и Руперта, разочаровавшихся в жизни и в любви к женщинам.

Качество: BDRip (Women.in.Love.1969.BDRemux.1080p.NovaLan)
Формат: AVI
Видео кодек: XviD
Аудио кодек: AC3
Видео: XviD, 1988 Кбит/с, 704x400, 24 кадр/с
Аудио#1: AC3, 2 ch, 192 Кбит/с, 48 kHz | Профессиональный многоголосый (DVD Магия)
Аудио#2: AC3, 2 ch, 192 Кбит/с, 48 kHz | Профессиональный многоголосый (DVD Classic)
Релиз от: Koenig
Общее
Полное имя : Women.in.Love.1969.BDRip.avi
Формат : AVI
Формат/Информация : Audio Video Interleave
Профиль формата : OpenDML
Размер файла : 2,18 Гбайт
Продолжительность : 2 ч. 10 м.
Общий поток : 2390 Кбит/сек
Программа кодирования : VirtualDubMod 1.5.10.2 (build 2540/release)
Библиотека кодирования : VirtualDubMod build 2540/release

Видео
Идентификатор : 0
Формат : MPEG-4 Visual
Профиль формата : Advanced Simple@L5
Параметр BVOP формата : 1
Параметр QPel формата : Нет
Параметр GMC формата : Без точки перехода
Параметр матрицы формата : Default (MPEG)
Идентификатор кодека : XVID
Идентификатор кодека/Подсказка : XviD
Продолжительность : 2 ч. 10 м.
Битрейт : 1988 Кбит/сек
Ширина : 704 пикселя
Высота : 400 пикселей
Соотношение сторон : 16:9
Частота кадров : 24,000 кадра/сек
Цветовое пространство : YUV
Субдискретизация насыщенности : 4:2:0
Битовая глубина : 8 бит
Тип развёртки : Прогрессивная
Метод сжатия : С потерями
Бит/(Пиксели*Кадры) : 0.294
Размер потока : 1,82 Гбайт (83%)
Библиотека кодирования : XviD 1.2.0.dev47 (UTC 2006-11-01)

Аудио #1
Идентификатор : 1
Формат : AC-3
Формат/Информация : Audio Coding 3
Профиль формата : Dolby Digital
Расширение режима : CM (complete main)
Параметр Endianness формата : Big
Идентификатор кодека : 2000
Продолжительность : 2 ч. 10 м.
Вид битрейта : Постоянный
Битрейт : 192 Кбит/сек
Каналы : 2 канала
Расположение каналов : Front: L R
Частота : 48,0 КГц
Частота кадров : 31,250 кадров/сек (1536 spf)
Метод сжатия : С потерями
Размер потока : 180 Мбайт (8%)
Выравнивание : Разделение по промежуткам
Продолжительность промежутка : 42 мс. (1,00 видеокадр)
Время предзагрузки промежутка : 500 мс.

Аудио #2
Идентификатор : 2
Формат : AC-3
Формат/Информация : Audio Coding 3
Профиль формата : Dolby Digital
Расширение режима : CM (complete main)
Параметр Endianness формата : Big
Идентификатор кодека : 2000
Продолжительность : 2 ч. 10 м.
Вид битрейта : Постоянный
Битрейт : 192 Кбит/сек
Каналы : 2 канала
Расположение каналов : Front: L R
Частота : 48,0 КГц
Частота кадров : 31,250 кадров/сек (1536 spf)
Метод сжатия : С потерями
Размер потока : 180 Мбайт (8%)
Выравнивание : Разделение по промежуткам
Продолжительность промежутка : 42 мс. (1,00 видеокадр)
Время предзагрузки промежутка : 500 мс.

Влюбленные женщины скачать торрент

piratbit.pw



Скачать Влюбленные женщины через торрент http://i83.fastpic.ru/big/2016/0902/95/faf9f33f2dad5d9115f75be62234b895.jpg Скачать фильм Влюбленные женщины через торрент бесплантно в хорошем качестве Описание: История двух жаждущих страстей сестер Гудрун и Урсулы и их возлюбленных мужчин Джеральда и Руперта, разочаровавшихся в жизни и в ... 5 10 1
Торрент: Зарегистрирован [2016-09-02 05:37] · скачан: 19 раз
Статус: √ проверено
Размер: 2.18 GB
Как cкачать? Как скачать Влюбленные женщины через торрент | qTorrent

% Раздел Тема Автор DL S | L
Фильмы [HD 720p, 1080p] (Хороший звук DUB, MVO) [ 19.76 GB ] Влюблённые женщины / Women in Love [1969 BDRip 1080p by msltel] 2 x MVO msltel Скачать
1 | 0
Фильмы [HD 720p, 1080p] (Хороший звук DUB, MVO) [ 6.37 GB ] Влюблённые женщины / Women in Love [1969 BDRip 720p by msltel] 2 x MVO msltel Скачать
1 | 0

28-11-2019 20:33  

Отключить всю рекламу на сайте

    Дорогой пользователь! Огромная просьба, поблагодарите релизера, оцените раздачу и оставьте свои комментарий, если Вы скачали Влюбленные женщины через торрент бесплатно! Внесите свою лепту в развитие PiratBit!
    Комментировать посты могут только пользователи прошедшие не сложную регистрацию
    Показать сообщения:    

    Влюбленные женщины через торрент
    Скачать бесплатно Влюбленные женщины
    Влюбленные женщины скачать торрент
    Влюбленные женщины смотреть онлайн
    Cкачать фильм Влюбленные женщины бесплатно
    Влюбленные женщины скачать торрент в хорошем качестве
    Влюбленные женщины смотреть онлайн бесплатно в хорошем качестве


    Вы не можете начинать темы
    Вы не можете отвечать на сообщения
    Вы не можете редактировать свои сообщения
    Вы не можете удалять свои сообщения
    Вы не можете голосовать в опросах
    Вы не можете прикреплять файлы к сообщениям
    Вы можете скачивать файлы