Ссылка на приватное зеркало нашего сайта всего за 1$. Внимание количество ограничено!!!

2 сезон

iTunes

iTunes

1

iTunes

iTunes

iTunes

WEBRip

iTunes

30
pack

Вам бонус

ВАЖНО

!!Акция!!

Alien_RageХит недели

RePack

Horizon Zero Dawn

ИГРА 18+

pack

RePack

jed

!!Акция!!

Alien_Rage

RePack

fifa19

RePack

Assassins Creed: Odyssey

RePack

NEED FOR SPEED™ PAYBACK

4 сезон

9 сезон

Бесстыжие 9 сезон

Все сериалы

все сериалы на PB.wtf

RePack

FAR CRY 5
  

По небу босиком (Султан Хажироко ) [2015, мелодрама, комедия, WEB-DL 1080p] iTunes piratbit.pw

По небу босиком через торрент piratbit.pw

Размер: 3.48 GB | Добавлен: 4 года назад | Торрент скачан:29 раз
Скачать  

31-08-2016 20:36 По небу босиком Скачать торрент  

По небу босиком

Год выпуска: 2015
Страна: Россия
Жанр: мелодрама, комедия
Продолжительность: 01:31:44
Перевод: [Оригинал] iTunes
Режиссер: Султан Хажироко
В ролях: Алан Кокаев (Бит), Милана Карагулова (Капелла), Тамби Масаев (Руслан), Султан Хажироко (Борис), Валентин Камергоев (Аслан Хасанович), Роза Байзулаева (бабуля Капеллы), Фатима Мамаева (мама Капеллы), Юсуп Омаров (Фариз), Сати Казанова (мама Бита), Ефрем Амирамов (дядя Герцель), Наталья Гулькина, Рустам Саидахмедов (Рустам)
Описание:
Говорят, что случайностей в жизни не бывает, что все предопределено... быть может там на небе есть такое министерство... ну, в котором все за нас решают: что и когда с нами должно произойти». С этих слов начинается история, в которой судьба играет с главными героями, превращая близких людей, в совсем незнакомых, даря им любовь и тут же забирая ее назад, сменяет радость грустью, а дружбу предательством. Но какие бы сюрпризы не преподносила жизнь - танцуй, ведь ты так молод, люби, ведь ты так одинок.
Рейтинг:

Качество: WEB-DL 1080p
Формат: MKV
Видео: AVC, 1920x1080 (16:9), 4942 kbps, 25 fps, 0,095 bpp
Аудио: русский / AC3 / 2.0 / 48 kHz / 384 kbps /
Навигация по главам: есть

General
Unique ID :
Complete name p0.Hebu.b0C1k0m.2O15.WEB-DL.1080p.mkv
Format : Matroska
Format version : Version 2
File size : 3.48 GiB
Duration : 1 h 31 min
Overall bit rate : 5 434 kb/s
Encoded date : UTC 2016-07-26 23:38:12
Writing application : mkvmerge v7.8.0 ('River Man') 32bit built on Apr 3 2015 12:11:22
Writing library : libebml v1.3.1 + libmatroska v1.4.2

Video
ID : 1
Format : AVC
Format/Info : Advanced Video Codec
Format profile : High@L4
Format settings, CABAC : Yes
Format settings, ReFrames : 4 frames
Codec ID : V_MPEG4/ISO/AVC
Duration : 1 h 31 min
Bit rate : 4 942 kb/s
Width : 1 920 pixels
Height : 1 080 pixels
Display aspect ratio : 16:9
Frame rate mode : Constant
Frame rate : 25.000 FPS
Color space : YUV
Chroma subsampling : 4:2:0
Bit depth : 8 bits
Scan type : Progressive
Bits/(Pixel*Frame) : 0.095
Stream size : 3.17 GiB (91%)
Language : Russian
Default : Yes
Forced : No
Color range : Limited
Color primaries : BT.709
Transfer characteristics : BT.709
Matrix coefficients : BT.709
Statistics Tags Issue : mkvmerge v7.1.0 ('Good Love') 64bit built on Jul 27 2014 13:06:55 2016-07-26 18:26:54 / mkvmerge v7.8.0 ('River Man') 32bit built on Apr 3 2015 12:11:22 2016-07-26 23:38:12
FromStats_BitRate : 5048504
FromStats_Duration : 01:31:44.880000000
FromStats_FrameCount : 137622
FromStats_StreamSize : 3473926126

Audio
ID : 2
Format : AC-3
Format/Info : Audio Coding 3
Mode extension : CM (complete main)
Format settings, Endianness : Big
Codec ID : A_AC3
Duration : 1 h 31 min
Bit rate mode : Constant
Bit rate : 384 kb/s
Channel(s) : 2 channels
Channel positions : Front: L R
Sampling rate : 48.0 kHz
Frame rate : 31.250 FPS (1536 spf)
Compression mode : Lossy
Stream size : 252 MiB (7%)
Language : Russian
Default : Yes
Forced : No

Menu
00:00:00.000 : en:Глава 1
00:06:18.040 : en:Глава 2
00:11:39.280 : en:Глава 3
00:16:54.480 : en:Глава 4
00:22:38.600 : en:Глава 5
00:26:51.720 : en:Глава 6
00:33:46.160 : en:Глава 7
00:39:04.200 : en:Глава 8
00:45:57.480 : en:Глава 9
00:53:17.080 : en:Глава 10
00:59:31.520 : en:Глава 11
01:03:28.640 : en:Глава 12
01:08:12.760 : en:Глава 13
01:16:37.560 : en:Глава 14
01:25:51.840 : en:Глава 15
Скриншоты:
piratbit.pw



Скачать По небу босиком через торрент http://i5.imageban.ru/out/2016/08/31/04c2f99fb26616454f2dddd97c165f31.jpg Скачать фильм По небу босиком через торрент бесплантно в хорошем качестве Описание: Говорят, что случайностей в жизни не бывает, что все предопределено... быть может там на небе есть такое министерство... ну, в ... 10 10 2
Торрент: Зарегистрирован [2016-08-31 20:36] · скачан: 29 раз
Статус: T временная
Размер: 3.48 GB
Как cкачать? Как скачать По небу босиком через торрент | qTorrent

% Раздел Тема Автор DL S | L
T Наши новые фильмы 2015 [ 1.46 GB ] По небу босиком [2015 Россия WEB-DLRip-AVC от sokol_ok] sokol_ok Скачать
2 | 0
T Наши фильмы (HD, WEB-DL 720p, 1080p) [ 2.64 GB ] По небу босиком [2015 WEB-DL 720p] smaster Скачать
1 | 0
T Фильмы 2015 [DVDrip, WEB-DLRip, HDrip] [ 1.37 GB ] По небу босиком [2015 Мело WEB-DLRip] / Sherif Скачать
1 | 0

28-11-2019 20:33  

Отключить всю рекламу на сайте

    Дорогой пользователь! Огромная просьба, поблагодарите релизера, оцените раздачу и оставьте свои комментарий, если Вы скачали По небу босиком через торрент бесплатно! Внесите свою лепту в развитие PiratBit!
    Комментировать посты могут только пользователи прошедшие не сложную регистрацию
    Показать сообщения:    

    По небу босиком через торрент
    Скачать бесплатно По небу босиком
    По небу босиком скачать торрент
    По небу босиком смотреть онлайн
    Cкачать фильм По небу босиком бесплатно
    По небу босиком скачать торрент в хорошем качестве
    По небу босиком смотреть онлайн бесплатно в хорошем качестве


    Вы не можете начинать темы
    Вы не можете отвечать на сообщения
    Вы не можете редактировать свои сообщения
    Вы не можете удалять свои сообщения
    Вы не можете голосовать в опросах
    Вы не можете прикреплять файлы к сообщениям
    Вы можете скачивать файлы