Ссылка на приватное зеркало нашего сайта всего за 1$. Внимание количество ограничено!!!

2 сезон

iTunes

iTunes

1

iTunes

iTunes

iTunes

WEBRip

iTunes

30
pack

Вам бонус

ВАЖНО

!!Акция!!

Alien_RageХит недели

RePack

Horizon Zero Dawn

ИГРА 18+

pack

RePack

jed

!!Акция!!

Alien_Rage

RePack

fifa19

RePack

Assassins Creed: Odyssey

RePack

NEED FOR SPEED™ PAYBACK

4 сезон

9 сезон

Бесстыжие 9 сезон

Все сериалы

все сериалы на PB.wtf

RePack

FAR CRY 5
  

По небу босиком (Султан Хажироко ) [2015, мелодрама, комедия, WEB-DL 720p] iTunes piratbit.pw

По небу босиком через торрент piratbit.pw

Размер: 2.64 GB | Добавлен: 4 года назад | Торрент скачан:17 раз
Скачать  

31-08-2016 20:26 По небу босиком Скачать торрент  

По небу босиком

Год выпуска: 2015
Страна: Россия
Жанр: мелодрама, комедия
Продолжительность: 01:31:44
Перевод: [Оригинал] iTunes
Режиссер: Султан Хажироко
В ролях: Алан Кокаев (Бит), Милана Карагулова (Капелла), Тамби Масаев (Руслан), Султан Хажироко (Борис), Валентин Камергоев (Аслан Хасанович), Роза Байзулаева (бабуля Капеллы), Фатима Мамаева (мама Капеллы), Юсуп Омаров (Фариз), Сати Казанова (мама Бита), Ефрем Амирамов (дядя Герцель), Наталья Гулькина, Рустам Саидахмедов (Рустам)
Описание:
Говорят, что случайностей в жизни не бывает, что все предопределено... быть может там на небе есть такое министерство... ну, в котором все за нас решают: что и когда с нами должно произойти». С этих слов начинается история, в которой судьба играет с главными героями, превращая близких людей, в совсем незнакомых, даря им любовь и тут же забирая ее назад, сменяет радость грустью, а дружбу предательством. Но какие бы сюрпризы не преподносила жизнь - танцуй, ведь ты так молод, люби, ведь ты так одинок.
Рейтинг:

Качество: WEB-DL 720p
Формат: MKV
Видео: AVC, 1280x720 (16:9), 3965 kbps, 25 fps, 0,172 bpp
Аудио: русский / AAC LC / 2.0 / 48 kHz / 153 kbps /
Навигация по главам: есть

General
Unique ID
Complete name Po.neBu.BosiKom.2O16.O.WEB-DL.720p.mkv
Format : Matroska
Format version : Version 2
File size : 2.64 GiB
Duration : 1 h 31 min
Overall bit rate : 4 122 kb/s
Movie name : PO_NEBU_BOSIKOM_WEB_DL_1080p-BLUEBIRD
Encoded date : UTC 2016-07-26 22:56:43
Writing application : mkvmerge v8.3.0 ('Over the Horizon') 64bit
Writing library : libebml v1.3.1 + libmatroska v1.4.2

Video
ID : 1
Format : AVC
Format/Info : Advanced Video Codec
Format profile : High@L4.1
Format settings, CABAC : Yes
Format settings, ReFrames : 4 frames
Codec ID : V_MPEG4/ISO/AVC
Duration : 1 h 31 min
Bit rate : 3 966 kb/s
Width : 1 280 pixels
Height : 720 pixels
Display aspect ratio : 16:9
Frame rate mode : Constant
Frame rate : 25.000 FPS
Color space : YUV
Chroma subsampling : 4:2:0
Bit depth : 8 bits
Scan type : Progressive
Bits/(Pixel*Frame) : 0.172
Stream size : 2.54 GiB (96%)
Default : Yes
Forced : No

Audio
ID : 2
Format : AAC
Format/Info : Advanced Audio Codec
Format profile : LC
Codec ID : A_AAC
Duration : 1 h 31 min
Bit rate : 154 kb/s
Channel(s) : 2 channels
Channel positions : Front: L R
Sampling rate : 48.0 kHz
Frame rate : 46.875 FPS (1024 spf)
Compression mode : Lossy
Stream size : 101 MiB (4%)
Title : [ORIGINAL] AAC 2.0 @ 160 kbps
Language : Russian
Default : Yes
Forced : No

Menu
00:00:00.000 : en:Глава 1
00:06:18.040 : en:Глава 2
00:11:39.280 : en:Глава 3
00:16:54.480 : en:Глава 4
00:22:38.600 : en:Глава 5
00:26:51.720 : en:Глава 6
00:33:46.160 : en:Глава 7
00:39:04.200 : en:Глава 8
00:45:57.480 : en:Глава 9
00:53:17.080 : en:Глава 10
00:59:31.520 : en:Глава 11
01:03:28.640 : en:Глава 12
01:08:12.760 : en:Глава 13
01:16:37.560 : en:Глава 14
01:25:51.840 : en:Глава 15
Скриншоты:
piratbit.pw



Скачать По небу босиком через торрент http://i4.imageban.ru/out/2016/08/31/7ab0563e41176fc029fba4344a93781c.jpg Скачать фильм По небу босиком через торрент бесплантно в хорошем качестве Описание: Говорят, что случайностей в жизни не бывает, что все предопределено... быть может там на небе есть такое министерство... ну, в ... 9.3 10 3
Торрент: Зарегистрирован [2016-08-31 20:26] · скачан: 17 раз
Статус: T временная
Размер: 2.64 GB
Как cкачать? Как скачать По небу босиком через торрент | qTorrent

% Раздел Тема Автор DL S | L
T Наши новые фильмы 2015 [ 1.46 GB ] По небу босиком [2015 Россия WEB-DLRip-AVC от sokol_ok] sokol_ok Скачать
2 | 0
T Наши фильмы (HD, WEB-DL 720p, 1080p) [ 3.48 GB ] По небу босиком [2015 WEB-DL 1080p] smaster Скачать
1 | 0
T Фильмы 2015 [DVDrip, WEB-DLRip, HDrip] [ 1.37 GB ] По небу босиком [2015 Мело WEB-DLRip] / Sherif Скачать
1 | 0

28-11-2019 20:33  

Отключить всю рекламу на сайте

    Дорогой пользователь! Огромная просьба, поблагодарите релизера, оцените раздачу и оставьте свои комментарий, если Вы скачали По небу босиком через торрент бесплатно! Внесите свою лепту в развитие PiratBit!
    Комментировать посты могут только пользователи прошедшие не сложную регистрацию
    Показать сообщения:    

    По небу босиком через торрент
    Скачать бесплатно По небу босиком
    По небу босиком скачать торрент
    По небу босиком смотреть онлайн
    Cкачать фильм По небу босиком бесплатно
    По небу босиком скачать торрент в хорошем качестве
    По небу босиком смотреть онлайн бесплатно в хорошем качестве


    Вы не можете начинать темы
    Вы не можете отвечать на сообщения
    Вы не можете редактировать свои сообщения
    Вы не можете удалять свои сообщения
    Вы не можете голосовать в опросах
    Вы не можете прикреплять файлы к сообщениям
    Вы можете скачивать файлы