Marvel's Avengers Deluxe Edition (супер цена) 159р. Внимание количество ограничено!!!

2 сезон

iTunes

iTunes

1

iTunes

iTunes

iTunes

WEBRip

iTunes

30
pack

Новость дня

ВАЖНО

!!Акция!!

Alien_RageХит недели

RePack

Horizon Zero Dawn

ИГРА 18+

pack

RePack

jed

!!Акция!!

Alien_Rage

RePack

fifa19

RePack

Assassins Creed: Odyssey

RePack

NEED FOR SPEED™ PAYBACK

4 сезон

9 сезон

Бесстыжие 9 сезон

Все сериалы

все сериалы на PB.wtf

RePack

FAR CRY 5
  

Завтрак у папы (Мария Кравченко ) [2015, комедия, WEB-DL 720p] iTunes piratbit.pw

Завтрак у папы через торрент piratbit.pw

Размер: 2.66 GB | Добавлен: 4 года назад | Торрент скачан:333 раза
Скачать  

31-08-2016 16:58 Завтрак у папы Скачать торрент  

Завтрак у папы

Год выпуска: 2015
Страна: Россия
Жанр: комедия
Продолжительность: 01:31:52
Перевод: [Оригинал] iTunes
Режиссер: Мария Кравченко
В ролях: Юрий Колокольников (Саша Титов), Катерина Шпица, Луиза-Габриэла Бровина (Аля), Полина Максимова (Оксана Тарелкина), Валентин Пелка, Кристина Шаповалова, Никита Тарасов, Михаил Полицеймако, Людмила Гаврилова (няня)
Описание:
У молодого, привлекательного и самовлюбленного Саши Титова в жизни, на первый взгляд, все сложилось как нельзя лучше: он успешный креативный директор рекламного агентства и полностью удовлетворен ни к чему не обязывающими отношениями с коллегой Оксаной Тарелкиной. Но однажды утром на пороге своего пентхауса Саша встречает милую десятилетнюю девчушку Алю, которая представляется его дочкой. Ворвавшись в жизнь Саши, смышленая и любознательная Аля серьезно намерена надолго в ней обосноваться. Но готов ли Саша принять все сюрпризы, приготовленные судьбой, и в корне изменить привычную холостяцкую жизнь?
Рейтинг:

Качество: WEB-DL 720p
Формат: MKV
Видео: AVC, 1280x536 (2.40:1), 3990 kbps, 24 fps, 0,242 bpp
Аудио: русский / AAC LC / 2.0 / 48 kHz / 152 kbps /
Навигация по главам: есть

General
Unique ID
Complete name ZavTrak.U.Papo.2O16.O.WEB-DL.72OP.mkv
Format : Matroska
Format version : Version 2
File size : 2.66 GiB
Duration : 1 h 31 min
Overall bit rate : 4 146 kb/s
Encoded date : UTC 2016-07-20 18:23:48
Writing application : mkvmerge v8.3.0 ('Over the Horizon') 64bit
Writing library : libebml v1.3.1 + libmatroska v1.4.2

Video
ID : 2
Format : AVC
Format/Info : Advanced Video Codec
Format profile : Main@L3.1
Format settings, CABAC : No
Format settings, ReFrames : 2 frames
Codec ID : V_MPEG4/ISO/AVC
Duration : 1 h 31 min
Bit rate : 3 991 kb/s
Width : 1 280 pixels
Height : 536 pixels
Display aspect ratio : 2.40:1
Frame rate mode : Constant
Frame rate : 24.000 FPS
Color space : YUV
Chroma subsampling : 4:2:0
Bit depth : 8 bits
Scan type : Progressive
Bits/(Pixel*Frame) : 0.242
Stream size : 2.56 GiB (96%)
Language : English
Default : Yes
Forced : No
Color range : Limited
Color primaries : BT.709
Transfer characteristics : BT.709
Matrix coefficients : BT.709

Audio
ID : 1
Format : AAC
Format/Info : Advanced Audio Codec
Format profile : LC
Codec ID : A_AAC
Duration : 1 h 31 min
Bit rate : 153 kb/s
Channel(s) : 2 channels
Channel positions : Front: L R
Sampling rate : 48.0 kHz
Frame rate : 46.875 FPS (1024 spf)
Compression mode : Lossy
Stream size : 101 MiB (4%)
Language : Russian
Default : Yes
Forced : No

Menu
00:00:00.000 : en:Глава 1
00:05:21.458 : en:Глава 2
00:10:52.791 : en:Глава 3
00:15:59.041 : en:Глава 4
00:21:37.791 : en:Глава 5
00:26:55.624 : en:Глава 6
00:32:20.415 : en:Глава 7
00:37:27.915 : en:Глава 8
00:42:28.790 : en:Глава 9
00:48:19.248 : en:Глава 10
00:54:26.539 : en:Глава 11
01:00:39.664 : en:Глава 12
01:06:34.539 : en:Глава 13
01:12:02.830 : en:Глава 14
01:18:09.955 : en:Глава 15
01:23:15.080 : en:Глава 16
Скриншоты:
piratbit.pw



Скачать Завтрак у папы через торрент http://i1.imageban.ru/out/2016/08/31/766f7eec51306fcba358bcec5ae25bc7.jpg Скачать фильм Завтрак у папы через торрент бесплантно в хорошем качестве Описание: У молодого, привлекательного и самовлюбленного Саши Титова в жизни, на первый взгляд, все сложилось как нельзя лучше: он успешный ... 10 10 8
Торрент: Зарегистрирован [2016-08-31 16:58] · скачан: 333 раз
Статус: √ проверено
Размер: 2.66 GB
Как cкачать? Как скачать Завтрак у папы через торрент | qTorrent

% Раздел Тема Автор DL S | L
T R.G. Resident & PiratVoice - Фильмы, Видео [ 1.46 GB ] Завтрак у папы [2015 WEB-DLRip-AVC Оригинал White Smoke Скачать
1 | 0
T Релизы по Парсеру [Игры, Сериалы и Фильмы и другое...] [ 1.37 GB ] Завтрак у папы WEB-DLRip / Ворон Скачать
1 | 0
T Релизы по Парсеру [Игры, Сериалы и Фильмы и другое...] [ 746 MB ] Завтрак у папы WEB-DLRip / Ворон Скачать
1 | 0
T Релизы по Парсеру [Игры, Сериалы и Фильмы и другое...] [ 3 GB ] Завтрак у папы WEB-DL 1080p / -Lexx- Скачать
1 | 0

28-11-2019 20:33  

Отключить всю рекламу на сайте

    Дорогой пользователь! Огромная просьба, поблагодарите релизера, оцените раздачу и оставьте свои комментарий, если Вы скачали Завтрак у папы через торрент бесплатно! Внесите свою лепту в развитие PiratBit!
    Комментировать посты могут только пользователи прошедшие не сложную регистрацию
    Показать сообщения:    

    Завтрак у папы через торрент
    Скачать бесплатно Завтрак у папы
    Завтрак у папы скачать торрент
    Завтрак у папы смотреть онлайн
    Cкачать фильм Завтрак у папы бесплатно
    Завтрак у папы скачать торрент в хорошем качестве
    Завтрак у папы смотреть онлайн бесплатно в хорошем качестве


    Вы не можете начинать темы
    Вы не можете отвечать на сообщения
    Вы не можете редактировать свои сообщения
    Вы не можете удалять свои сообщения
    Вы не можете голосовать в опросах
    Вы не можете прикреплять файлы к сообщениям
    Вы можете скачивать файлы