Marvel's Avengers Deluxe Edition (супер цена) 159р. Внимание количество ограничено!!!

2 сезон

iTunes

iTunes

1

iTunes

iTunes

iTunes

WEBRip

iTunes

30
pack

Новость дня

ВАЖНО

!!Акция!!

Alien_RageХит недели

RePack

Horizon Zero Dawn

ИГРА 18+

pack

RePack

jed

!!Акция!!

Alien_Rage

RePack

fifa19

RePack

Assassins Creed: Odyssey

RePack

NEED FOR SPEED™ PAYBACK

4 сезон

9 сезон

Бесстыжие 9 сезон

Все сериалы

все сериалы на PB.wtf

RePack

FAR CRY 5
  

Пятница (Евгений Шелякин ) [2016, комедия, BDRip 720p от potroks] [Лицензия] piratbit.pw

Пятница через торрент piratbit.pw

Размер: 5.13 GB | Добавлен: 4 года назад | Торрент скачан:208 раз
Скачать  

31-08-2016 10:45 Пятница Скачать торрент  

Пятница

Год выпуска: 2016
Страна: Россия / RSS Production
Жанр: комедия
Продолжительность: 01:26:54
Перевод: Оригинал
Режиссер: Евгений Шелякин
В ролях: Данила Козловский (Бондарь), Сергей Бурунов (Игорь), Настасья Самбурская (Лара), Катерина Шпица (Вера), Павел Деревянко (Антонов), Кирилл Плетнёв (Макс), Евгения Брик (Лена), Антон Шагин (Виталий), Ян Цапник (Вадим Равильевич), Евгений Стычкин (Илья), Сергей Чирков (Егор), Аристарх Венес (Гоша)
Описание:
Что если азартный миллионер на одну ночь станет официантом, офисный лузер будет звездой самой яркой вечеринки, а двум «заклятым» друзьям придется искать кенгуру ночью в подмосковном лесу? У каждого своя пятница! Как она закончится для каждого, знает только утро субботы ;)
Рейтинг:

Качество: BDRip 720p
Формат: MKV
Видео: AVC, 1280x536 (2.40:1), 7814 kbps, 24 fps, 0,475 bpp
Аудио: русский / AC3 / 5.1 / 48 kHz / 640 kbps / 16 bit

Навигация по главам: есть

Код:

General
Unique ID                                : 199585109233685073890962253301285020638 (0x9626B19F04FE8F3091A26196215263DE)
Complete name                            : D:\Pyatnitca.2016.RUS.BDRip.720p.-HELLYWOOD..mkv
Format                                   : Matroska
Format version                           : Version 4 / Version 2
File size                                : 5.13 GiB
Duration                                 : 1 h 26 min
Overall bit rate                         : 8 452 kb/s
Movie name                               : Пятница (2016)
Encoded date                             : UTC 2016-07-02 14:57:02
Writing application                      : mkvmerge v5.9.0 ('On The Loose') built on Dec 15 2012 16:39:58
Writing library                          : libebml v1.3.0 + libmatroska v1.4.0

Video
ID                                       : 1
Format                                   : AVC
Format/Info                              : Advanced Video Codec
Format profile                           : High@L4.1
Format settings, CABAC                   : Yes
Format settings, ReFrames                : 9 frames
Codec ID                                 : V_MPEG4/ISO/AVC
Duration                                 : 1 h 26 min
Bit rate                                 : 7 814 kb/s
Width                                    : 1 280 pixels
Height                                   : 536 pixels
Display aspect ratio                     : 2.40:1
Frame rate mode                          : Constant
Frame rate                               : 24.000 FPS
Color space                              : YUV
Chroma subsampling                       : 4:2:0
Bit depth                                : 8 bits
Scan type                                : Progressive
Bits/(Pixel*Frame)                       : 0.475
Stream size                              : 4.64 GiB (90%)
Title                                    : potroks
Writing library                          : x264 core 148 r2705M 3f5ed56
Encoding settings                        : cabac=1 / ref=9 / deblock=1:-2:-2 / analyse=0x3:0x133 / me=umh / subme=11 / psy=1 / psy_rd=1.05:0.10 / mixed_ref=1 / me_range=48 / chroma_me=1 / trellis=2 / 8x8dct=1 / cqm=0 / deadzone=21,11 / fast_pskip=0 / chroma_qp_offset=-3 / threads=9 / lookahead_threads=2 / sliced_threads=0 / nr=0 / decimate=0 / interlaced=0 / bluray_compat=0 / constrained_intra=0 / bframes=10 / b_pyramid=2 / b_adapt=2 / b_bias=0 / direct=3 / weightb=1 / open_gop=0 / weightp=2 / keyint=240 / keyint_min=23 / scenecut=40 / intra_refresh=0 / rc_lookahead=100 / rc=2pass / mbtree=0 / bitrate=7814 / ratetol=1.0 / qcomp=0.70 / qpmin=1 / qpmax=69 / qpstep=4 / cplxblur=20.0 / qblur=0.5 / vbv_maxrate=50000 / vbv_bufsize=60000 / nal_hrd=none / filler=0 / ip_ratio=1.40 / pb_ratio=1.30 / aq=1:0.75
Language                                 : Russian
Default                                  : Yes
Forced                                   : No

Audio
ID                                       : 2
Format                                   : AC-3
Format/Info                              : Audio Coding 3
Mode extension                           : CM (complete main)
Format settings, Endianness              : Big
Codec ID                                 : A_AC3
Duration                                 : 1 h 26 min
Bit rate mode                            : Constant
Bit rate                                 : 640 kb/s
Channel(s)                               : 6 channels
Channel positions                        : Front: L C R, Side: L R, LFE
Sampling rate                            : 48.0 kHz
Frame rate                               : 31.250 FPS (1536 spf)
Compression mode                         : Lossy
Stream size                              : 398 MiB (8%)
Language                                 : Russian
Default                                  : Yes
Forced                                   : No

Menu
00:00:00.000                             : en:(01)00:00:00:000
00:00:19.375                             : en:(02)00:00:19:375
00:10:15.166                             : en:(03)00:10:15:166
00:21:16.833                             : en:(04)00:21:16:833
00:31:42.125                             : en:(05)00:31:42:125
00:41:03.208                             : en:(06)00:41:03:208
00:51:13.041                             : en:(07)00:51:13:041
00:59:44.958                             : en:(08)00:59:44:958
01:07:29.083                             : en:(09)01:07:29:083

piratbit.pw



Скачать Пятница через торрент http://i84.fastpic.ru/big/2016/0831/a5/6eb6eadbad1e0f5d0568dc1a0de4a8a5.png Скачать фильм Пятница через торрент бесплантно в хорошем качестве Описание: Что если азартный миллионер на одну ночь станет официантом, офисный лузер будет звездой самой яркой вечеринки, а двум «заклятым» ... 7.4 10 7
Info! Золотая раздача, скачанное не засчитывается.
Торрент: Зарегистрирован [2016-08-31 10:45] · скачан: 208 раз
Статус: √ проверено
Размер: 5.13 GB
Как cкачать? Как скачать Пятница через торрент | qTorrent

% Раздел Тема Автор DL S | L
Фильмы [HD 720p, 1080p] (Хороший звук DUB, MVO) [ 3.85 GB ] Слава богу сегодня пятница / Thank God It's Friday [1978 музыка BDRip 720p by msltel] MVO msltel Скачать
1 | 0
Фильмы (Blu-ray, BD-Remux, HDDVD) [ 21.82 GB ] Слава Богу сегодня пятница / Thank God It's Friday [1978 музыка BDRemux 1080p] [MVO] killermax2013 Скачать
1 | 0
Фильмы до 2000 г. [ 2.09 GB ] Слава богу сегодня пятница / Thank God It's Friday [1978 музыка BDRip-AVC by msltel] MVO msltel Скачать
1 | 0
Наши сериалы [ 2.77 GB ] Убийства по пятницам / Сезон: 2 / Серии: 1-4 из 4 [2019 WEBRip-AVC] aleksan55 Скачать
1 | 0
Наши сериалы [ 2.27 GB ] Убийства по пятницам / Сезон: 2 / Серии: 1-4 из 4 [2019 WEB-DLRip-AVC] bober100 Скачать
1 | 0
Наши сериалы [ 6.53 GB ] Убийства по пятницам / Сезон: 2 / Серии: 1-4 из 4 [2019 WEB-DL 1080p] bober100 Скачать
1 | 0
Наши сериалы [ 2.73 GB ] Убийства по пятницам / Сезон: 2 / Серии: 1-4 из 4 [2019 WEB-DLRip] bober100 Скачать
1 | 0

28-11-2019 20:33  

Отключить всю рекламу на сайте

    Дорогой пользователь! Огромная просьба, поблагодарите релизера, оцените раздачу и оставьте свои комментарий, если Вы скачали Пятница через торрент бесплатно! Внесите свою лепту в развитие PiratBit!
    Комментировать посты могут только пользователи прошедшие не сложную регистрацию
    Показать сообщения:    

    Пятница через торрент
    Скачать бесплатно Пятница
    Пятница скачать торрент
    Пятница смотреть онлайн
    Cкачать фильм Пятница бесплатно
    Пятница скачать торрент в хорошем качестве
    Пятница смотреть онлайн бесплатно в хорошем качестве


    Вы не можете начинать темы
    Вы не можете отвечать на сообщения
    Вы не можете редактировать свои сообщения
    Вы не можете удалять свои сообщения
    Вы не можете голосовать в опросах
    Вы не можете прикреплять файлы к сообщениям
    Вы можете скачивать файлы