1 сезон

1 сезон

iTunes

1

iTunes

Кинопоиск HD

iTunes

13

1 сезон

RePack

30

Deluxe

ВАЖНО

ИГРА 18+

pack

RePack

MK11
pack

Легкие деньги

RePack

jed

RePack

fifa19

RePack

RDR2

RePack

NEED FOR SPEED™ PAYBACK

4 сезон

9 сезон

Бесстыжие 9 сезон

Все сериалы

все сериалы на PB.wtf

RePack

FAR CRY 5
  
Magnet ссылка

Нехитрое дельце / The Hard Easy (Эри Райан ) [2006, боевик, триллер, драма, DVDRip, Профессиональный (многоголосый) piratbit.pw

Нехитрое дельце через торрент piratbit.pw

Размер: 1.37 GB | Добавлен: 4 года 8 мес. назад | Торрент скачан:39 раз
Скачать  

31-08-2016 09:26 Нехитрое дельце Скачать торрент  

Нехитрое дельце / The Hard Easy

Год выпуска: 2006
Страна: США
Жанр: боевик, триллер, драма, криминал

Продолжительность: 01:41:06
Перевод: Профессиональный (многоголосый)
Режиссер: Эри Райан
В ролях: Генри Томас (Paul Weston), Дэвид Бореаназ (Roger Hargitay), Вера Фармига (Dr. Charlie Brooks), Брюс Дерн (Gene), Питер Уэллер (Ed Koster), Ник Лаше (Jason Burns), Элиму Нельсон (Stephen McKinley), Гэри Бьюзи (Vinnie), Рэй Аллен (Freddie), Хезер Аррелано (Office Worker), Greg Ashamalla (Ed's Assistant), Эмили Бергл (Natalie)
Описание:
Две банды решают ограбить один и тот же банк в одно и то же время. Но это не случайность...
Рейтинг:
MPAA: R - Лицам до 17 лет обязательно присутствие взрослого
IMBD

Качество: DVDRip
Формат: AVI
Видео: DivX 5, 720x544 (4:3), 1738 kbps, 25 fps, 0,178 bpp
Аудио: русский / AC3 / 2.0 / 48 kHz / 192 kbps /
General
Complete name : E:\The Hard Easy.avi
Format : AVI
Format/Info : Audio Video Interleave
File size : 1.37 GiB
Duration : 1 h 41 min
Overall bit rate : 1 937 kb/s
Writing application : VirtualDubMod 1.5.4.1 (build 2178/release)
Writing library : VirtualDubMod build 2178/release

Video
ID : 0
Format : MPEG-4 Visual
Format settings, BVOP : 1
Format settings, QPel : No
Format settings, GMC : No warppoints
Format settings, Matrix : Default (H.263)
Muxing mode : Packed bitstream
Codec ID : DX50
Codec ID/Hint : DivX 5
Duration : 1 h 41 min
Bit rate : 1 738 kb/s
Width : 720 pixels
Height : 544 pixels
Display aspect ratio : 4:3
Frame rate : 25.000 FPS
Color space : YUV
Chroma subsampling : 4:2:0
Bit depth : 8 bits
Scan type : Progressive
Compression mode : Lossy
Bits/(Pixel*Frame) : 0.178
Stream size : 1.23 GiB (90%)
Writing library : DivX 6.8.3-6.8.4 (UTC 2008-06-07)

Audio
ID : 1
Format : AC-3
Format/Info : Audio Coding 3
Mode extension : CM (complete main)
Format settings, Endianness : Big
Codec ID : 2000
Duration : 1 h 41 min
Bit rate mode : Constant
Bit rate : 192 kb/s
Channel(s) : 2 channels
Channel positions : Front: L R
Sampling rate : 48.0 kHz
Frame rate : 31.250 FPS (1536 spf)
Compression mode : Lossy
Stream size : 139 MiB (10%)
Alignment : Split accross interleaves
Interleave, duration : 96 ms (2.40 video frames)
Interleave, preload duration : 96 ms
Language : Russian


piratbit.pw



Скачать Нехитрое дельце через торрент http://i84.fastpic.ru/big/2016/0831/85/df119ad168e068407e6882f969733585.jpg Скачать фильм Нехитрое дельце через торрент бесплантно в хорошем качестве Описание: Две банды решают ограбить один и тот же банк в одно и то же время. Но это не случайность...Рейтинг:MPAA: R - Лицам до 17 лет ... 5 10 1
Торрент: Зарегистрирован [2016-08-31 09:26] · скачан: 39 раз
Статус: √ проверено
Размер: 1.37 GB
Как cкачать? Как скачать Нехитрое дельце через торрент | UTorrent

28-11-2019 20:33  

Отключить всю рекламу на сайте

    Дорогой пользователь! Огромная просьба, поблагодарите релизера, оцените раздачу и оставьте свои комментарий, если Вы скачали Нехитрое дельце через торрент бесплатно! Внесите свою лепту в развитие PiratBit!
    Комментировать посты могут только пользователи прошедшие не сложную регистрацию
    Показать сообщения:    

    Нехитрое дельце через торрент
    Скачать бесплатно Нехитрое дельце
    Нехитрое дельце скачать торрент
    Нехитрое дельце смотреть онлайн
    Cкачать фильм Нехитрое дельце бесплатно
    Нехитрое дельце скачать торрент в хорошем качестве
    Нехитрое дельце смотреть онлайн бесплатно в хорошем качестве


    Вы не можете начинать темы
    Вы не можете отвечать на сообщения
    Вы не можете редактировать свои сообщения
    Вы не можете удалять свои сообщения
    Вы не можете голосовать в опросах
    Вы не можете прикреплять файлы к сообщениям
    Вы можете скачивать файлы