Ссылка на приватное зеркало нашего сайта всего за 1$. Внимание количество ограничено!!!

2 сезон

iTunes

1 сезон

1

iTunes

iTunes

iTunes

1 сезон

RePack

30

ИГРА 18+

pack

ВАЖНО

!!Акция!!

Alien_RageХит недели

RePack

MK11
pack

Забери бонус

RePack

jed

!!Акция!!

Alien_Rage

RePack

fifa19

RePack

Assassins Creed: Odyssey

RePack

NEED FOR SPEED™ PAYBACK

4 сезон

9 сезон

Бесстыжие 9 сезон

Все сериалы

все сериалы на PB.wtf

RePack

FAR CRY 5
  

Атлантик-Сити / Atlantic City (Луи Малль) [1980 г., мелодрама, драма, криминал, BDRip-AVC] DUB, MVO, DVO, AVO piratbit.pw

Атлантик-Сити через торрент piratbit.pw

Размер: 2.74 GB | Добавлен: 4 года 1 мес. назад | Торрент скачан:14 раз
Скачать  

27-08-2016 08:01 Атлантик-Сити Скачать торрент  

Атлантик-Сити / Atlantic City
Год выпуска: 1980
Страна: Канада, Франция
Жанр: мелодрама, драма, криминал
Продолжительность: 01:44:55
Перевод: Дублированный, профессиональный многоголосый, профессиональный двухголосый, авторский
Субтитры: Русские (полные), Русские (форсированные, на отсутствующие места в переводе Гаврилова), Английские

Режиссер: Луи Малль
Продюссер: Джон Кемень, Джозеф Бобьен, Габриэль Бутьяни
Сценарий: Джон Гуар

Бюджет: $7 200 000
Премьера в мире: 2 сентября 1980



В ролях: Бёрт Ланкастер, Сьюзен Сарандон, Мишель Пикколи, Холлис МакЛарен, Роберт Джой, Моузес Знеймер, Робер Гуле, Эл Уоксмен, Кейт Рид, Энгус МакИннес

Описание: Гангстер Лу ушел на покой и живет в Атлантик-Сити, такой же, как и Лас-Вегас, столице американского игорного бизнеса. Но жизнь Лу круто меняется, когда он знакомится с молодым жуликом Дэйвом, укравшем наркотики у мафии, и его бывшей женой Сэлли, работающей в одном из казино Атлантик-Сити. Мафиози настигают и убивают Дэйва, а Лу и Сэлли попадают в самый центр событий, в которых смешалось все — любовь и деньги, наркотики и смерть…

Качество: BDRip-AVC (Atlantic City.1980.BDRemux.)
Формат: MKV
Видео кодек: H.264
Аудио кодек: AC3
Видео: MPEG-4 AVC, 2772 Кбит/с, 960x576, 24 кадр/с
Аудио#1: AC3, 2 ch, 192 Кбит/с, 48 kHz | Дублированный, Ленфильм
Аудио#2: AC3, 2 ch, 192 Кбит/с, 48 kHz | Профессиональный многоголосый (Cinema Prestige)
Аудио#3: AC3, 2 ch, 192 Кбит/с, 48 kHz | Профессиональный двухголосый (Екатеринбург Арт)
Аудио#4: AC3, 2 ch, 192 Кбит/с, 48 kHz | Авторский (Андрей Гаврилов)
Аудио#5: AC3, 2 ch, 192 Кбит/с, 48 kHz | Английский
Релиз от: Koenig
Общее
Уникальный идентификатор : 235573092482580646405195544736605636622 (0xB139BA2FB45019188A7748BD1007880E)
Полное имя : Atlantic.City.1980.BDR-AVC.mkv
Формат : Matroska
Версия формата : Version 4 / Version 2
Размер файла : 2,74 Гбайт
Продолжительность : 1 ч. 44 м.
Общий поток : 3735 Кбит/сек
Название фильма : Atlantic City
Режиссёр : Louis Malle
Дата кодирования : UTC 2016-08-27 06:02:02
Программа кодирования : mkvmerge v9.2.0 ('Photograph') 32bit
Библиотека кодирования : libebml v1.3.3 + libmatroska v1.4.4
Обложка : Yes
Attachments : cover.jpg
Release : Koenig

Видео
Идентификатор : 1
Формат : AVC
Формат/Информация : Advanced Video Codec
Профиль формата : High@L4.1
Параметр CABAC формата : Да
Параметр ReFrames формата : 9 кадров
Идентификатор кодека : V_MPEG4/ISO/AVC
Продолжительность : 1 ч. 44 м.
Битрейт : 2772 Кбит/сек
Ширина : 960 пикселей
Высота : 576 пикселей
Соотношение сторон : 5:3
Режим частоты кадров : Постоянный
Частота кадров : 24,000 кадра/сек
Цветовое пространство : YUV
Субдискретизация насыщенности : 4:2:0
Битовая глубина : 8 бит
Тип развёртки : Прогрессивная
Бит/(Пиксели*Кадры) : 0.209
Размер потока : 2,03 Гбайт (74%)
Библиотека кодирования : x264 core 148 r2692 64f4e24
Настройки программы : cabac=1 / ref=9 / deblock=1:-3:-3 / analyse=0x3:0x133 / me=umh / subme=10 / psy=1 / psy_rd=1.00:0.00 / mixed_ref=1 / me_range=32 / chroma_me=1 / trellis=2 / 8x8dct=1 / cqm=0 / deadzone=21,11 / fast_pskip=0 / chroma_qp_offset=-2 / threads=3 / lookahead_threads=1 / sliced_threads=0 / nr=0 / decimate=1 / interlaced=0 / bluray_compat=0 / constrained_intra=0 / bframes=12 / b_pyramid=2 / b_adapt=2 / b_bias=0 / direct=3 / weightb=1 / open_gop=0 / weightp=2 / keyint=240 / keyint_min=24 / scenecut=40 / intra_refresh=0 / rc_lookahead=40 / rc=2pass / mbtree=1 / bitrate=2772 / ratetol=1.0 / qcomp=0.60 / qpmin=10 / qpmax=51 / qpstep=4 / cplxblur=20.0 / qblur=0.5 / vbv_maxrate=50000 / vbv_bufsize=62500 / nal_hrd=none / filler=0 / ip_ratio=1.40 / aq=1:1.00
Default : Да
Forced : Нет

Аудио #1
Идентификатор : 2
Формат : AC-3
Формат/Информация : Audio Coding 3
Расширение режима : CM (complete main)
Параметр Endianness формата : Big
Идентификатор кодека : A_AC3
Продолжительность : 1 ч. 44 м.
Вид битрейта : Постоянный
Битрейт : 192 Кбит/сек
Каналы : 2 канала
Расположение каналов : Front: L R
Частота : 48,0 КГц
Частота кадров : 31,250 кадров/сек (1536 spf)
Метод сжатия : С потерями
Размер потока : 144 Мбайт (5%)
Заголовок : DUB - Ленфильм
Язык : Russian
Default : Да
Forced : Нет

Аудио #2
Идентификатор : 3
Формат : AC-3
Формат/Информация : Audio Coding 3
Расширение режима : CM (complete main)
Параметр Endianness формата : Big
Идентификатор кодека : A_AC3
Продолжительность : 1 ч. 44 м.
Вид битрейта : Постоянный
Битрейт : 192 Кбит/сек
Каналы : 2 канала
Расположение каналов : Front: L R
Частота : 48,0 КГц
Частота кадров : 31,250 кадров/сек (1536 spf)
Метод сжатия : С потерями
Размер потока : 144 Мбайт (5%)
Заголовок : MVO - Cinema Prestige
Язык : Russian
Default : Нет
Forced : Нет

Аудио #3
Идентификатор : 4
Формат : AC-3
Формат/Информация : Audio Coding 3
Расширение режима : CM (complete main)
Параметр Endianness формата : Big
Идентификатор кодека : A_AC3
Продолжительность : 1 ч. 44 м.
Вид битрейта : Постоянный
Битрейт : 192 Кбит/сек
Каналы : 2 канала
Расположение каналов : Front: L R
Частота : 48,0 КГц
Частота кадров : 31,250 кадров/сек (1536 spf)
Метод сжатия : С потерями
Размер потока : 144 Мбайт (5%)
Заголовок : DVO - Екатеринбург Арт
Язык : Russian
Default : Нет
Forced : Нет

Аудио #4
Идентификатор : 5
Формат : AC-3
Формат/Информация : Audio Coding 3
Расширение режима : CM (complete main)
Параметр Endianness формата : Big
Идентификатор кодека : A_AC3
Продолжительность : 1 ч. 44 м.
Вид битрейта : Постоянный
Битрейт : 192 Кбит/сек
Каналы : 2 канала
Расположение каналов : Front: L R
Частота : 48,0 КГц
Частота кадров : 31,250 кадров/сек (1536 spf)
Метод сжатия : С потерями
Размер потока : 144 Мбайт (5%)
Заголовок : AVO - Гаврилов
Язык : Russian
Default : Нет
Forced : Нет

Аудио #5
Идентификатор : 6
Формат : AC-3
Формат/Информация : Audio Coding 3
Расширение режима : CM (complete main)
Параметр Endianness формата : Big
Идентификатор кодека : A_AC3
Продолжительность : 1 ч. 44 м.
Вид битрейта : Постоянный
Битрейт : 192 Кбит/сек
Каналы : 2 канала
Расположение каналов : Front: L R
Частота : 48,0 КГц
Частота кадров : 31,250 кадров/сек (1536 spf)
Метод сжатия : С потерями
Размер потока : 144 Мбайт (5%)
Язык : English
Default : Нет
Forced : Нет

Текст #1
Идентификатор : 7
Формат : UTF-8
Идентификатор кодека : S_TEXT/UTF8
Идентификатор кодека/Информация : UTF-8 Plain Text
Продолжительность : 1 ч. 39 м.
Битрейт : 96 бит/сек
Count of elements : 1120
Размер потока : 70,4 Кбайт (0%)
Заголовок : FULL
Язык : Russian
Default : Да
Forced : Нет

Текст #2
Идентификатор : 8
Формат : UTF-8
Идентификатор кодека : S_TEXT/UTF8
Идентификатор кодека/Информация : UTF-8 Plain Text
Продолжительность : 7 м. 50 с.
Битрейт : 43 бит/сек
Count of elements : 47
Размер потока : 2,48 Кбайт (0%)
Заголовок : Отсутствующие фрагменты Гаврилова
Язык : Russian
Default : Нет
Forced : Нет

Текст #3
Идентификатор : 9
Формат : UTF-8
Идентификатор кодека : S_TEXT/UTF8
Идентификатор кодека/Информация : UTF-8 Plain Text
Продолжительность : 1 ч. 37 м.
Битрейт : 55 бит/сек
Count of elements : 1089
Размер потока : 39,1 Кбайт (0%)
Язык : English
Default : Нет
Forced : Нет

Меню
00:00:00.000 : :Лимонная церемония
00:01:34.508 : :Семья
00:08:53.324 : :Грэйс
00:16:36.007 : :Казино
00:20:24.011 : :Наркотик
00:29:14.003 : :Абракадабра
00:32:59.858 : :Жемчужина
00:39:54.817 : :Погоня
00:42:37.692 : :"Дэйв мертв"
00:59:23.114 : :Соблазнение
01:05:46.000 : :"Я за вами наблюдаю"
01:10:01.010 : :Обыск
01:18:19.667 : :Разговор с мистером Шапиро
01:24:30.124 : :Ни доказательств, ни свидетелей
01:32:53.070 : :Франция - хорошая страна
01:42:46.225 : :Заключительные титры

Атлантик-Сити скачать торрент

piratbit.pw



Скачать Атлантик-Сити через торрент http://s018.radikal.ru/i505/1608/7c/e07bb8313a10.jpg Скачать фильм Атлантик-Сити через торрент бесплантно в хорошем качестве Описание: Гангстер Лу ушел на покой и живет в Атлантик-Сити, такой же, как и Лас-Вегас, столице американского игорного бизнеса. Но жизнь Лу ... 5 10 1
Торрент: Зарегистрирован [2016-08-27 08:01] · скачан: 14 раз
Статус: √ проверено
Размер: 2.74 GB
Как cкачать? Как скачать Атлантик-Сити через торрент | qTorrent

% Раздел Тема Автор DL S | L
Фильмы [HD 720p, 1080p] (Хороший звук DUB, MVO) [ 14.23 GB ] Атлантик-Сити / Atlantic City [1980 BDRip 1080p by msltel] DUB MVO DVO AVO msltel Скачать
1 | 0
Фильмы [HD 720p, 1080p] (Хороший звук DUB, MVO) [ 4.44 GB ] Атлантик-Сити / Atlantic City [1980 BDRip 720p by msltel] DUB MVO DVO AVO msltel Скачать
1 | 0
Классика зарубежного кино [ 2.17 GB ] Атлантик Сити / Atlantic City [1980 DVDRip-AVC ] [MVO] + + [AVO] killermax2013 Скачать
1 | 0

28-11-2019 20:33  

Отключить всю рекламу на сайте

    Дорогой пользователь! Огромная просьба, поблагодарите релизера, оцените раздачу и оставьте свои комментарий, если Вы скачали Атлантик-Сити через торрент бесплатно! Внесите свою лепту в развитие PiratBit!
    Комментировать посты могут только пользователи прошедшие не сложную регистрацию
    Показать сообщения:    

    Атлантик-Сити через торрент
    Скачать бесплатно Атлантик-Сити
    Атлантик-Сити скачать торрент
    Атлантик-Сити смотреть онлайн
    Cкачать фильм Атлантик-Сити бесплатно
    Атлантик-Сити скачать торрент в хорошем качестве
    Атлантик-Сити смотреть онлайн бесплатно в хорошем качестве


    Вы не можете начинать темы
    Вы не можете отвечать на сообщения
    Вы не можете редактировать свои сообщения
    Вы не можете удалять свои сообщения
    Вы не можете голосовать в опросах
    Вы не можете прикреплять файлы к сообщениям
    Вы можете скачивать файлы