Marvel's Avengers Deluxe Edition (супер цена) 159р. Внимание количество ограничено!!!

2 сезон

iTunes

iTunes

1

iTunes

iTunes

iTunes

WEBRip

iTunes

30
pack

Новость дня

ВАЖНО

!!Акция!!

Alien_RageХит недели

RePack

Horizon Zero Dawn

ИГРА 18+

pack

RePack

jed

!!Акция!!

Alien_Rage

RePack

fifa19

RePack

Assassins Creed: Odyssey

RePack

NEED FOR SPEED™ PAYBACK

4 сезон

9 сезон

Бесстыжие 9 сезон

Все сериалы

все сериалы на PB.wtf

RePack

FAR CRY 5
  

Уроки выживания (Андрей Томашевский ) [2015, комедия, семейный, приключения, WEB-DL 1080p, [Оригинал] piratbit.pw

Уроки выживания через торрент piratbit.pw

Размер: 2.96 GB | Добавлен: 4 года назад | Торрент скачан:87 раз
Скачать  

25-08-2016 18:25 Уроки выживания Скачать торрент  

Уроки выживания

Год выпуска: 2015
Страна: Россия
Жанр: комедия, семейный, приключения
Продолжительность: 01:22:44
Перевод: [Оригинал]
Режиссер: Андрей Томашевский
В ролях: Денис Никифоров, Илья Костюков, Екатерина Волкова, Александр Самойленко, Анастасия Черникова
Описание:
Женя Аистов - брутальный красавец и лихой летчик. Он знает толк в жизни и женщинах, ценит свободу и... не любит детей. Когда-то он был командиром воздушного судна, а ныне управляет маленьким самолетом, доставляющим грузы на экзотический курорт. Однажды он терпит крушение на необитаемом острове. Но самое ужасное, что вместе с ним на острове оказывается 8-летний мальчишка, смешной и занудливый Коля. Так началась эта веселая «игра» на выживание...
Рейтинг:

Качество: WEB-DL 1080p
Формат: MKV
Видео: AVC, 1920x804 (2.40:1), 4741 kbps, 25 fps, 0,123 bpp
Аудио: русский / AC3 / 5.1 / 48 kHz / 384 kbps /
Навигация по главам: есть

General
Unique ID
Complete name Yroki.Vizhyvania.2016.O.WEB-DL.1080p.mkv
Format : Matroska
Format version : Version 4 / Version 2
File size : 2.96 GiB
Duration : 1 h 22 min
Overall bit rate : 5 128 kb/s
Encoded date : UTC 2016-04-13 19:42:57
Writing application : mkvmerge v8.3.0 ('Over the Horizon') 64bit
Writing library : libebml v1.3.1 + libmatroska v1.4.2

Video
ID : 1
Format : AVC
Format/Info : Advanced Video Codec
Format profile : High@L4
Format settings, CABAC : Yes
Format settings, ReFrames : 5 frames
Codec ID : V_MPEG4/ISO/AVC
Duration : 1 h 22 min
Bit rate : 4 742 kb/s
Width : 1 920 pixels
Height : 804 pixels
Display aspect ratio : 2.40:1
Frame rate mode : Constant
Frame rate : 25.000 FPS
Color space : YUV
Chroma subsampling : 4:2:0
Bit depth : 8 bits
Scan type : Progressive
Bits/(Pixel*Frame) : 0.123
Stream size : 2.74 GiB (92%)
Language : English
Default : Yes
Forced : No
Color range : Limited
Color primaries : BT.709
Transfer characteristics : BT.709
Matrix coefficients : BT.709

Audio
ID : 2
Format : AC-3
Format/Info : Audio Coding 3
Mode extension : CM (complete main)
Format settings, Endianness : Big
Codec ID : A_AC3
Duration : 1 h 22 min
Bit rate mode : Constant
Bit rate : 384 kb/s
Channel(s) : 6 channels
Channel positions : Front: L C R, Side: L R, LFE
Sampling rate : 48.0 kHz
Frame rate : 31.250 FPS (1536 spf)
Compression mode : Lossy
Stream size : 227 MiB (7%)
Language : Russian
Default : Yes
Forced : No

Menu
00:00:00.000 : en:Глава 1
00:05:17.320 : en:Глава 2
00:10:28.960 : en:Глава 3
00:14:56.440 : en:Глава 4
00:20:48.600 : en:Глава 5
00:28:57.480 : en:Глава 6
00:36:38.840 : en:Глава 7
00:42:15.360 : en:Глава 8
00:49:41.200 : en:Глава 9
00:55:19.360 : en:Глава 10
01:01:58.480 : en:Глава 11
01:08:56.680 : en:Глава 12
01:16:27.400 : en:Глава 13
Скриншоты:
piratbit.pw



Скачать Уроки выживания через торрент http://i4.imageban.ru/out/2016/08/25/ecd26ed45748dad666a42eeedd6e856b.jpg Скачать фильм Уроки выживания через торрент бесплантно в хорошем качестве Описание: Женя Аистов - брутальный красавец и лихой летчик. Он знает толк в жизни и женщинах, ценит свободу и... не любит детей. Когда-то ... 7 10 9
Торрент: Зарегистрирован [2016-08-25 18:25] · скачан: 87 раз
Статус: √ проверено
Размер: 2.96 GB
Как cкачать? Как скачать Уроки выживания через торрент | qTorrent

% Раздел Тема Автор DL S | L
Документальные фильмы и телепередачи [ 1.26 GB ] Засекреченные списки. Инструкция по выживанию: 8 важных уроков! [2020 Документальный расследование SATRip] bober100 Скачать
1 | 0
Наши новые фильмы 2016 [ 1.37 GB ] Уроки выживания [2016 WEB-DLRip / ] Ворон Скачать
1 | 0
Наши фильмы (HD, WEB-DL 720p, 1080p) [ 2.6 GB ] Уроки выживания [2016 WEB-DL 720p / ] Ворон Скачать
2 | 0
Фильмы 2013 [DVDrip, WEB-DLRip, HDrip] [ 1.46 GB ] Философы: Урок выживания / The Philosophers [2013 Индонезия HDRip Ворон Скачать
1 | 0
Фильмы 2013 [DVDrip, WEB-DLRip, HDrip] [ 1.46 GB ] Философы: Урок выживания / The Philosophers [2013 DVDRip ] MihailHD Скачать
2 | 0
Фильмы (DVD фильмы) [ 6.93 GB ] Философы: Урок выживания / The Philosophers [2013 DVD9] R5 voovaz Скачать
1 | 0
Фильмы 2010 [ 1.36 GB ] Урок выживания / Detention [2010 DVDRip лицензия] SD Скачать
1 | 0

28-11-2019 20:33  

Отключить всю рекламу на сайте

25-08-2016 19:00 Уроки выживания Скачать торрент  

Зачем я прочитал описание... piratbit.pw



    Дорогой пользователь! Огромная просьба, поблагодарите релизера, оцените раздачу и оставьте свои комментарий, если Вы скачали Уроки выживания через торрент бесплатно! Внесите свою лепту в развитие PiratBit!
    Комментировать посты могут только пользователи прошедшие не сложную регистрацию
    Показать сообщения:    

    Уроки выживания через торрент
    Скачать бесплатно Уроки выживания
    Уроки выживания скачать торрент
    Уроки выживания смотреть онлайн
    Cкачать фильм Уроки выживания бесплатно
    Уроки выживания скачать торрент в хорошем качестве
    Уроки выживания смотреть онлайн бесплатно в хорошем качестве


    Вы не можете начинать темы
    Вы не можете отвечать на сообщения
    Вы не можете редактировать свои сообщения
    Вы не можете удалять свои сообщения
    Вы не можете голосовать в опросах
    Вы не можете прикреплять файлы к сообщениям
    Вы можете скачивать файлы