Ссылка на приватное зеркало нашего сайта всего за 1$. Внимание количество ограничено!!!

2 сезон

iTunes

iTunes

1

iTunes

iTunes

iTunes

WEBRip

iTunes

30
pack

Вам бонус

ВАЖНО

!!Акция!!

Alien_RageХит недели

RePack

Horizon Zero Dawn

ИГРА 18+

pack

RePack

jed

!!Акция!!

Alien_Rage

RePack

fifa19

RePack

Assassins Creed: Odyssey

RePack

NEED FOR SPEED™ PAYBACK

4 сезон

9 сезон

Бесстыжие 9 сезон

Все сериалы

все сериалы на PB.wtf

RePack

FAR CRY 5
  

Пятница (Евгений Шелякин ) [2016, комедия, BDRip 1080p [Лицензия] piratbit.pw

Пятница через торрент piratbit.pw

Размер: 8.26 GB | Добавлен: 4 года назад | Торрент скачан:76 раз
Скачать  

25-08-2016 14:24 Пятница Скачать торрент  

Пятница

Год выпуска: 2016
Страна: Россия
Жанр: комедия

Продолжительность: 01:26:54
Перевод: Оригинал [Лицензия]
Режиссер: Евгений Шелякин
В ролях: Данила Козловский (Бондарь), Сергей Бурунов (Игорь), Настасья Самбурская (Лара), Катерина Шпица (Вера), Павел Деревянко (Антонов), Кирилл Плетнёв (Макс), Евгения Брик (Лена), Антон Шагин (Виталий), Ян Цапник (Вадим Равильевич), Евгений Стычкин (Илья), Сергей Чирков (Егор), Аристарх Венес (Гоша)
Описание:
Что если азартный миллионер на одну ночь станет официантом, офисный лузер будет звездой самой яркой вечеринки, а двум «заклятым» друзьям придется искать кенгуру ночью в подмосковном лесу? У каждого своя пятница! Как она закончится для каждого, знает только утро субботы ;)
Рейтинг:

Качество: BDRip 1080p
Формат: MKV
Видео: AVC, 1920x808 (2.40:1), 11461 kbps, 24 fps, 0,308 bpp
Аудио №1: русский / AC3 / 5.1 / 48 kHz / 640 kbps /
Аудио №2: русский / DTS / 5.1 / 48 kHz / 1509 kbps / 24 bit
Навигация по главам: есть

General
Unique ID
Complete name Pjatnica.2016.x264.BDRip.(1080p).ExKinoRay.mkv
Format : Matroska
Format version : Version 2
File size : 8.26 GiB
Duration : 1 h 26 min
Overall bit rate : 13.6 Mb/s
Movie name : Пятница.2016.Rip by: ollan
Encoded date : UTC 2016-07-07 07:07:23
Writing application : mkvmerge v5.6.0 ('Kenya Kane') built on May 27 2012 16:44:04
Writing library : libebml v1.2.3 + libmatroska v1.3.0
Cover : Yes
Attachments : Cover - Pjatnica.png

Video
ID : 1
Format : AVC
Format/Info : Advanced Video Codec
Format profile : High@L4.1
Format settings, CABAC : Yes
Format settings, ReFrames : 5 frames
Codec ID : V_MPEG4/ISO/AVC
Duration : 1 h 26 min
Bit rate : 11.5 Mb/s
Width : 1 920 pixels
Height : 808 pixels
Display aspect ratio : 2.40:1
Frame rate mode : Constant
Frame rate : 24.000 FPS
Color space : YUV
Chroma subsampling : 4:2:0
Bit depth : 8 bits
Scan type : Progressive
Bits/(Pixel*Frame) : 0.308
Stream size : 6.79 GiB (82%)
Writing library : x264 core 146 r2538 121396c
Encoding settings : cabac=1 / ref=5 / deblock=1:-3:-3 / analyse=0x3:0x133 / me=umh / subme=11 / psy=1 / psy_rd=1.02:0.07 / mixed_ref=1 / me_range=48 / chroma_me=1 / trellis=2 / 8x8dct=1 / cqm=0 / deadzone=21,11 / fast_pskip=0 / chroma_qp_offset=-3 / threads=12 / lookahead_threads=3 / sliced_threads=0 / nr=0 / decimate=0 / interlaced=0 / bluray_compat=0 / constrained_intra=0 / bframes=10 / b_pyramid=2 / b_adapt=2 / b_bias=0 / direct=3 / weightb=1 / open_gop=0 / weightp=2 / keyint=240 / keyint_min=23 / scenecut=40 / intra_refresh=0 / rc_lookahead=60 / rc=2pass / mbtree=1 / bitrate=11461 / ratetol=1.0 / qcomp=0.60 / qpmin=0 / qpmax=69 / qpstep=4 / cplxblur=20.0 / qblur=0.5 / vbv_maxrate=50000 / vbv_bufsize=62500 / nal_hrd=none / filler=0 / ip_ratio=1.40 / aq=1:1.00
Language : Russian
Default : Yes
Forced : No

Audio #1
ID : 2
Format : AC-3
Format/Info : Audio Coding 3
Mode extension : CM (complete main)
Format settings, Endianness : Big
Codec ID : A_AC3
Duration : 1 h 26 min
Bit rate mode : Constant
Bit rate : 640 kb/s
Channel(s) : 6 channels
Channel positions : Front: L C R, Side: L R, LFE
Sampling rate : 48.0 kHz
Frame rate : 31.250 FPS (1536 spf)
Compression mode : Lossy
Stream size : 398 MiB (5%)
Language : Russian
Default : Yes
Forced : No

Audio #2
ID : 3
Format : DTS
Format/Info : Digital Theater Systems
Mode : 16
Format settings, Endianness : Big
Codec ID : A_DTS
Duration : 1 h 26 min
Bit rate mode : Constant
Bit rate : 1 509 kb/s
Channel(s) : 6 channels
Channel positions : Front: L C R, Side: L R, LFE
Sampling rate : 48.0 kHz
Frame rate : 93.750 FPS (512 spf)
Bit depth : 24 bits
Compression mode : Lossy
Stream size : 938 MiB (11%)
Language : Russian
Default : No
Forced : No

Menu
00:00:00.000 : ru:Chapter 01
00:05:00.000 : ru:Chapter 02
00:10:00.000 : ru:Chapter 03
00:15:00.000 : ru:Chapter 04
00:20:00.000 : ru:Chapter 05
00:25:00.000 : ru:Chapter 06
00:30:00.000 : ru:Chapter 07
00:35:00.000 : ru:Chapter 08
00:40:00.000 : ru:Chapter 09
00:45:00.000 : ru:Chapter 10
00:50:00.000 : ru:Chapter 11
00:55:00.000 : ru:Chapter 12
01:00:00.000 : ru:Chapter 13
01:05:00.000 : ru:Chapter 14
01:10:00.000 : ru:Chapter 15
01:15:00.000 : ru:Chapter 16
01:20:00.000 : ru:Chapter 17
01:25:00.000 : ru:Chapter 18
Скриншоты:
piratbit.pw



Скачать Пятница через торрент http://i3.imageban.ru/out/2016/08/25/288bf9b03cb424f4603dc80ded1eb38e.jpg Скачать фильм Пятница через торрент бесплантно в хорошем качестве Описание: Что если азартный миллионер на одну ночь станет официантом, офисный лузер будет звездой самой яркой вечеринки, а двум «заклятым» ... 9 10 9
Info! Золотая раздача, скачанное не засчитывается.
Торрент: Зарегистрирован [2016-08-25 14:24] · скачан: 76 раз
Статус: √ проверено
Размер: 8.26 GB
Как cкачать? Как скачать Пятница через торрент | qTorrent

% Раздел Тема Автор DL S | L
Фильмы [HD 720p, 1080p] (Хороший звук DUB, MVO) [ 3.85 GB ] Слава богу сегодня пятница / Thank God It's Friday [1978 музыка BDRip 720p by msltel] MVO msltel Скачать
1 | 0
Фильмы (Blu-ray, BD-Remux, HDDVD) [ 21.82 GB ] Слава Богу сегодня пятница / Thank God It's Friday [1978 музыка BDRemux 1080p] [MVO] killermax2013 Скачать
1 | 0
Фильмы до 2000 г. [ 2.09 GB ] Слава богу сегодня пятница / Thank God It's Friday [1978 музыка BDRip-AVC by msltel] MVO msltel Скачать
2 | 0
Наши сериалы [ 2.77 GB ] Убийства по пятницам / Сезон: 2 / Серии: 1-4 из 4 [2019 WEBRip-AVC] aleksan55 Скачать
1 | 0
Наши сериалы [ 2.27 GB ] Убийства по пятницам / Сезон: 2 / Серии: 1-4 из 4 [2019 WEB-DLRip-AVC] bober100 Скачать
1 | 0
Наши сериалы [ 6.53 GB ] Убийства по пятницам / Сезон: 2 / Серии: 1-4 из 4 [2019 WEB-DL 1080p] bober100 Скачать
1 | 0
Наши сериалы [ 2.73 GB ] Убийства по пятницам / Сезон: 2 / Серии: 1-4 из 4 [2019 WEB-DLRip] bober100 Скачать
1 | 0

28-11-2019 20:33  

Отключить всю рекламу на сайте

26-08-2016 13:22 Пятница Скачать торрент  

Зачёт!piratbit.pw



    Дорогой пользователь! Огромная просьба, поблагодарите релизера, оцените раздачу и оставьте свои комментарий, если Вы скачали Пятница через торрент бесплатно! Внесите свою лепту в развитие PiratBit!
    Комментировать посты могут только пользователи прошедшие не сложную регистрацию
    Показать сообщения:    

    Пятница через торрент
    Скачать бесплатно Пятница
    Пятница скачать торрент
    Пятница смотреть онлайн
    Cкачать фильм Пятница бесплатно
    Пятница скачать торрент в хорошем качестве
    Пятница смотреть онлайн бесплатно в хорошем качестве


    Вы не можете начинать темы
    Вы не можете отвечать на сообщения
    Вы не можете редактировать свои сообщения
    Вы не можете удалять свои сообщения
    Вы не можете голосовать в опросах
    Вы не можете прикреплять файлы к сообщениям
    Вы можете скачивать файлы