Marvel's Avengers Deluxe Edition (супер цена) 159р. Внимание количество ограничено!!!

2 сезон

iTunes

iTunes

1

iTunes

iTunes

iTunes

WEBRip

iTunes

30
pack

Новость дня

ВАЖНО

!!Акция!!

Alien_RageХит недели

RePack

Horizon Zero Dawn

ИГРА 18+

pack

RePack

jed

!!Акция!!

Alien_Rage

RePack

fifa19

RePack

Assassins Creed: Odyssey

RePack

NEED FOR SPEED™ PAYBACK

4 сезон

9 сезон

Бесстыжие 9 сезон

Все сериалы

все сериалы на PB.wtf

RePack

FAR CRY 5
  

Мафия: Игра на выживание (Сарик Андреасян ) [2015, фантастика, боевик, BDRip 720p [Лицензия] piratbit.pw

Мафия: Игра на выживание через торрент piratbit.pw

Размер: 4.37 GB | Добавлен: 4 года назад | Торрент скачан:84 раза
Скачать  

25-08-2016 13:30 Мафия: Игра на выживание Скачать торрент  

Мафия: Игра на выживание

Год выпуска: 2015
Страна: Россия
Жанр: фантастика, боевик

Продолжительность: 01:31:05
Перевод: Оригинал [Лицензия]
Субтитры: немецкий
Режиссер: Сарик Андреасян
В ролях: Виктор Вержбицкий, Вениамин Смехов, Юрий Чурсин, Вячеслав Разбегаев, Ольга Тумайкина, Андрей Чадов, Вадим Цаллати, Виолетта Гетманская, Наталья Рудова (балерина), Евгений Коряковский, Алексей Гришин, Артем Сучков
Описание:
Москва. Далекое будущее. Карточная игра МАФИЯ стала самым популярным в мире телешоу. Одиннадцать человек соберутся за столом, чтобы выяснить - кто из них Мирный Житель, а кто безжалостная МАФИЯ. На глазах всего мира готовится коктейль из эмоций и чувств: хитрости, страха, лжи, ненависти, презрения, боли, гордости, страсти, любви и смерти. Ведь выигравший в схватке получит огромный денежный приз, а проигравший просто умрет...
Рейтинг:

Качество: BDRip 720p
Формат: MKV
Видео: AVC, 1280x536 (2.40:1), 5592 kbps, 23,976 fps, 0,340 bpp
Аудио №1: русский / AC3 / 5.1 / 48 kHz / 640 kbps /
Аудио №2: немецкий / AC3 / 5.1 / 48 kHz / 640 kbps /
Навигация по главам: есть

General
Unique ID
Complete name \Mafiya.Igra.Na.Vyzhyvaniye.2016.DUAL.BDRip.720p.-HELLYWOOD.mkv
Format : Matroska
Format version : Version 4 / Version 2
File size : 4.37 GiB
Duration : 1 h 31 min
Overall bit rate : 6 866 kb/s
Movie name : Мафия: Игра на выживание (2016)
Encoded date : UTC 2016-05-25 16:17:29
Writing application : mkvmerge v5.9.0 ('On The Loose') built on Dec 15 2012 16:39:58
Writing library : libebml v1.3.0 + libmatroska v1.4.0

Video
ID : 1
Format : AVC
Format/Info : Advanced Video Codec
Format profile : High@L4.1
Format settings, CABAC : Yes
Format settings, ReFrames : 9 frames
Codec ID : V_MPEG4/ISO/AVC
Duration : 1 h 31 min
Bit rate : 5 592 kb/s
Width : 1 280 pixels
Height : 536 pixels
Display aspect ratio : 2.40:1
Frame rate mode : Constant
Frame rate : 23.976 (24000/1001) FPS
Color space : YUV
Chroma subsampling : 4:2:0
Bit depth : 8 bits
Scan type : Progressive
Bits/(Pixel*Frame) : 0.340
Stream size : 3.47 GiB (79%)
Title : potroks
Writing library : x264 core 148 r2694M 3b70645
Encoding settings : cabac=1 / ref=9 / deblock=1:-2:-2 / analyse=0x3:0x133 / me=umh / subme=11 / psy=1 / psy_rd=1.06:0.10 / mixed_ref=1 / me_range=48 / chroma_me=1 / trellis=2 / 8x8dct=1 / cqm=0 / deadzone=21,11 / fast_pskip=0 / chroma_qp_offset=-3 / threads=9 / lookahead_threads=2 / sliced_threads=0 / nr=0 / decimate=0 / interlaced=0 / bluray_compat=0 / constrained_intra=0 / bframes=10 / b_pyramid=2 / b_adapt=2 / b_bias=0 / direct=3 / weightb=1 / open_gop=0 / weightp=2 / keyint=240 / keyint_min=23 / scenecut=40 / intra_refresh=0 / rc_lookahead=100 / rc=2pass / mbtree=0 / bitrate=5592 / ratetol=1.0 / qcomp=0.70 / qpmin=0 / qpmax=69 / qpstep=4 / cplxblur=20.0 / qblur=0.5 / vbv_maxrate=50000 / vbv_bufsize=60000 / nal_hrd=none / filler=0 / ip_ratio=1.40 / pb_ratio=1.30 / aq=1:0.75
Language : Russian
Default : Yes
Forced : No

Audio #1
ID : 2
Format : AC-3
Format/Info : Audio Coding 3
Mode extension : CM (complete main)
Format settings, Endianness : Big
Codec ID : A_AC3
Duration : 1 h 31 min
Bit rate mode : Constant
Bit rate : 640 kb/s
Channel(s) : 6 channels
Channel positions : Front: L C R, Side: L R, LFE
Sampling rate : 48.0 kHz
Frame rate : 31.250 FPS (1536 spf)
Compression mode : Lossy
Stream size : 417 MiB (9%)
Title : Original | DD 5.1 @ 640 kbps - Blu-ray
Language : Russian
Default : Yes
Forced : No

Audio #2
ID : 3
Format : AC-3
Format/Info : Audio Coding 3
Mode extension : CM (complete main)
Format settings, Endianness : Big
Codec ID : A_AC3
Duration : 1 h 31 min
Bit rate mode : Constant
Bit rate : 640 kb/s
Channel(s) : 6 channels
Channel positions : Front: L C R, Side: L R, LFE
Sampling rate : 48.0 kHz
Frame rate : 31.250 FPS (1536 spf)
Compression mode : Lossy
Stream size : 417 MiB (9%)
Title : DD 5.1 @ 640 kbps
Language : German
Default : No
Forced : No

Text #1
ID : 4
Format : UTF-8
Codec ID : S_TEXT/UTF8
Codec ID/Info : UTF-8 Plain Text
Title : Forced
Language : German
Default : No
Forced : No

Text #2
ID : 5
Format : UTF-8
Codec ID : S_TEXT/UTF8
Codec ID/Info : UTF-8 Plain Text
Title : Full
Language : German
Default : No
Forced : No

Menu
00:00:00.000 : :(01)00:00:00:000
00:08:51.572 : :(02)00:08:51:572
00:18:26.021 : :(03)00:18:26:021
00:27:38.990 : :(04)00:27:38:990
00:37:32.124 : :(05)00:37:32:124
00:48:15.309 : :(06)00:48:15:309
00:59:19.138 : :(07)00:59:19:138
01:11:41.547 : :(08)01:11:41:547
01:26:38.776 : :(09)01:26:38:776
Скриншоты
piratbit.pw



Скачать Мафия: Игра на выживание через торрент http://i2.imageban.ru/out/2016/08/25/9676d53b788ebc1ea46c99f64d84c9c6.jpg Скачать фильм Мафия: Игра на выживание через торрент бесплантно в хорошем качестве Описание: Москва. Далекое будущее. Карточная игра МАФИЯ стала самым популярным в мире телешоу. Одиннадцать человек соберутся за столом, ... 7.7 10 9
Info! Золотая раздача, скачанное не засчитывается.
Торрент: Зарегистрирован [2016-08-25 13:30] · скачан: 84 раз
Статус: √ проверено
Размер: 4.37 GB
Как cкачать? Как скачать Мафия: Игра на выживание через торрент | qTorrent

% Раздел Тема Автор DL S | L
Наши фильмы (Blu-ray, BD-Remux, HDDVD) [ 17.93 GB ] Мафия: Игра на выживание [2015 BDRemux 1080p] от ExKinoRay / Russian Mafia Скачать
1 | 0
Наши фильмы (HD, WEB-DL 720p, 1080p) [ 10.66 GB ] Мафия: Игра на выживание [2016 BDRip 1080p] [] bober100 Скачать
1 | 0
Наши новые фильмы 2015 [ 1.46 GB ] Мафия: Игра на выживание [2015 WEB-DLRip] Оригинал Twi7ter Скачать
1 | 0
Наши фильмы (HD, WEB-DL 720p, 1080p) [ 3.05 GB ] Мафия: Игра на выживание [2015 WEB-DL 1080p [Русский] Без рекламы $-DRON-$ Скачать
1 | 0
Наши новые фильмы 2015 [ 1.46 GB ] Мафия: Игра на выживание [2015 WEB-DLRip [Русский] Ворон Скачать
1 | 0
Наши новые фильмы 2015 [ 1.48 GB ] Мафия: Игра на выживание [2015 WEB-DLRip [Русский] Без рекламы $-DRON-$ Скачать
1 | 0
Наши фильмы (HD, WEB-DL 720p, 1080p) [ 2.81 GB ] Мафия: Игра на выживание [2015 WEB-DL 720p / ] Ворон Скачать
1 | 0

28-11-2019 20:33  

Отключить всю рекламу на сайте

26-08-2016 04:21 Мафия: Игра на выживание Скачать торрент  

Паталогически не верю в русские блокбастеры. С нашим менталитетом, пафосом, коррупцией, откатами, наши снимают лишь 1 качественный фильм из 100 ( мб даже 500), все остальное - жуткое УГ... И вряд ли этот фильм- исключение.piratbit.pw



    Дорогой пользователь! Огромная просьба, поблагодарите релизера, оцените раздачу и оставьте свои комментарий, если Вы скачали Мафия: Игра на выживание через торрент бесплатно! Внесите свою лепту в развитие PiratBit!
    Комментировать посты могут только пользователи прошедшие не сложную регистрацию
    Показать сообщения:    

    Мафия: Игра на выживание через торрент
    Скачать бесплатно Мафия: Игра на выживание
    Мафия: Игра на выживание скачать торрент
    Мафия: Игра на выживание смотреть онлайн
    Cкачать фильм Мафия: Игра на выживание бесплатно
    Мафия: Игра на выживание скачать торрент в хорошем качестве
    Мафия: Игра на выживание смотреть онлайн бесплатно в хорошем качестве


    Вы не можете начинать темы
    Вы не можете отвечать на сообщения
    Вы не можете редактировать свои сообщения
    Вы не можете удалять свои сообщения
    Вы не можете голосовать в опросах
    Вы не можете прикреплять файлы к сообщениям
    Вы можете скачивать файлы