Ссылка на приватное зеркало нашего сайта всего за 1$. Внимание количество ограничено!!!

2 сезон

iTunes

iTunes

1

iTunes

iTunes

iTunes

WEBRip

iTunes

30
pack

Новость дня

ВАЖНО

!!Акция!!

Alien_RageХит недели

RePack

Horizon Zero Dawn

ИГРА 18+

pack

RePack

jed

!!Акция!!

Alien_Rage

RePack

fifa19

RePack

Assassins Creed: Odyssey

RePack

NEED FOR SPEED™ PAYBACK

4 сезон

9 сезон

Бесстыжие 9 сезон

Все сериалы

все сериалы на PB.wtf

RePack

FAR CRY 5
  

СуперБобровы (Дмитрий Дьяченко ) [2015, комедия, семейный, фантастика, BDRip 720p] [Лицензия] piratbit.pw

СуперБобровы через торрент piratbit.pw

Размер: 4.37 GB | Добавлен: 4 года назад | Торрент скачан:153 раза
Скачать  

25-08-2016 11:35 СуперБобровы Скачать торрент  

СуперБобровы

Год выпуска: 2015
Страна: Россия
Жанр: комедия, семейный, фантастика
Продолжительность: 01:31:28
Перевод: Оригинал [Лицензия]
Режиссер: Дмитрий Дьяченко
В ролях: Павел Деревянко (Олег), Оксана Акиньшина (Светлана Боброва), Роман Мадянов (Борис Алексеевич Бобров), Ирина Пегова (Рита Боброва), Владимир Толоконников (Павел Григорьевич Бобров), Даниил Вахрушев (Толик Бобров), Софья Мицкевич (Саша Боброва), Михаил Шамигулов (ППСник), Елизавета Кононова, Виталий Кищенко (Валера), Алексей Хардиков (владелец катера), Андрей Ребенков (заведующий моргом)
Описание:
Вместо десерта на ужин семейство Бобровых получило... метеорит. Настоящий, большой, из космоса. Благодаря ему Бобровы вдруг приобретают немыслимые сверхспособности. Дед становится бессмертным, а отец теперь может телепортироваться. Сын начинает понимать собачий язык, а его сёстры получают суперсилу, возможность летать и быть невидимой. Единственное ограничение - способности действуют только когда вся семейка в сборе.
Короче, у заурядной, среднестатистической ячейки общества появляется шанс превратиться в отряд настоящих супергероев. Вот только вместо того, чтобы спасать мир, они решают ограбить ближайший банк…
Рейтинг:

Качество: BDRip 720p
Формат: MKV
Видео: AVC, 1280x536 (2.40:1), 6203 kbps, 25 fps, 0,362 bpp
Аудио: русский / AC3 / 5.1 / 48 kHz / 640 kbps /
Навигация по главам: есть

General
Unique ID
Complete name SuperBobrovy.2016.RUS.BDRip.720p.-HELLYWOOD.mkv
Format : Matroska
Format version : Version 4 / Version 2
File size : 4.37 GiB
Duration : 1 h 31 min
Overall bit rate : 6 839 kb/s
Movie name : СуперБобровы (2016)
Encoded date : UTC 2016-05-25 06:50:59
Writing application : mkvmerge v5.9.0 ('On The Loose') built on Dec 15 2012 16:39:58
Writing library : libebml v1.3.0 + libmatroska v1.4.0

Video
ID : 1
Format : AVC
Format/Info : Advanced Video Codec
Format profile : High@L4.1
Format settings, CABAC : Yes
Format settings, ReFrames : 9 frames
Codec ID : V_MPEG4/ISO/AVC
Duration : 1 h 31 min
Bit rate : 6 203 kb/s
Width : 1 280 pixels
Height : 536 pixels
Display aspect ratio : 2.40:1
Frame rate mode : Constant
Frame rate : 25.000 FPS
Color space : YUV
Chroma subsampling : 4:2:0
Bit depth : 8 bits
Scan type : Progressive
Bits/(Pixel*Frame) : 0.362
Stream size : 3.87 GiB (89%)
Title : potroks
Writing library : x264 core 146 r2538 121396c
Encoding settings : cabac=1 / ref=9 / deblock=1:-2:-2 / analyse=0x3:0x113 / me=umh / subme=11 / psy=1 / psy_rd=1.05:0.10 / mixed_ref=1 / me_range=48 / chroma_me=1 / trellis=2 / 8x8dct=1 / cqm=0 / deadzone=21,11 / fast_pskip=0 / chroma_qp_offset=-3 / threads=9 / lookahead_threads=2 / sliced_threads=0 / nr=0 / decimate=0 / interlaced=0 / bluray_compat=0 / constrained_intra=0 / bframes=10 / b_pyramid=2 / b_adapt=2 / b_bias=0 / direct=3 / weightb=1 / open_gop=0 / weightp=2 / keyint=250 / keyint_min=23 / scenecut=40 / intra_refresh=0 / rc_lookahead=60 / rc=2pass / mbtree=0 / bitrate=6203 / ratetol=1.0 / qcomp=0.70 / qpmin=0 / qpmax=69 / qpstep=4 / cplxblur=20.0 / qblur=0.5 / vbv_maxrate=14000 / vbv_bufsize=14000 / nal_hrd=none / filler=0 / ip_ratio=1.40 / pb_ratio=1.30 / aq=1:0.70
Language : Russian
Default : Yes
Forced : No

Audio
ID : 2
Format : AC-3
Format/Info : Audio Coding 3
Mode extension : CM (complete main)
Format settings, Endianness : Big
Codec ID : A_AC3
Duration : 1 h 31 min
Bit rate mode : Constant
Bit rate : 640 kb/s
Channel(s) : 6 channels
Channel positions : Front: L C R, Side: L R, LFE
Sampling rate : 48.0 kHz
Frame rate : 31.250 FPS (1536 spf)
Compression mode : Lossy
Stream size : 419 MiB (9%)
Title : DD 5.1 @ 640 kbps - Blu-ray
Language : Russian
Default : Yes
Forced : No

Menu
00:00:00.000 : ru:Chapter 01
00:01:06.600 : ru:Chapter 02
00:11:08.880 : ru:Chapter 03
00:22:22.240 : ru:Chapter 04
00:33:08.680 : ru:Chapter 05
00:44:41.280 : ru:Chapter 06
00:56:54.600 : ru:Chapter 07
01:10:51.040 : ru:Chapter 08
01:21:54.840 : ru:Chapter 09
Скриншоты
piratbit.pw



Скачать СуперБобровы через торрент http://i4.imageban.ru/out/2016/08/25/71ca07325fe9fd37c227c1ded9b1447e.jpg Скачать фильм СуперБобровы через торрент бесплантно в хорошем качестве Описание: Вместо десерта на ужин семейство Бобровых получило... метеорит. Настоящий, большой, из космоса. Благодаря ему Бобровы вдруг ... 7.1 10 7
Торрент: Зарегистрирован [2016-08-25 11:35] · скачан: 153 раз
Статус: √ проверено
Размер: 4.37 GB
Как cкачать? Как скачать СуперБобровы через торрент | qTorrent

% Раздел Тема Автор DL S | L
Наши фильмы (HD, WEB-DL 720p, 1080p) [ 3.06 GB ] СуперБобровы. Народные мстители [2018 WEB-DL 1080p] bober100 Скачать
7 | 1
Наши новые фильмы 2018-2019 [ 745 MB ] СуперБобровы. Народные мстители [2018 WEB-DLRip] bober100 Скачать
1 | 0
Наши новые фильмы 2018-2019 [ 1.39 GB ] СуперБобровы. Народные мстители [2018 WEB-DLRip-AVC] bober100 Скачать
2 | 0
Наши фильмы (HD, WEB-DL 720p, 1080p) [ 2.79 GB ] СуперБобровы. Народные мстители [2018 WEB-DL 720p] bober100 Скачать
1 | 0
Наши новые фильмы 2018-2019 [ 1.46 GB ] СуперБобровы. Народные мстители [2018 WEB-DLRip] bober100 Скачать
2 | 0
Наши новые фильмы 2016 [ 2.91 GB ] СуперБобровы [2016 Россия BDRip-AVC от sokol_ok] [] sokol_ok Скачать
1 | 0
Наши новые фильмы 2016 [ 1.46 GB ] СуперБобровы [2016 Россия BDRip] [] Twi7ter Скачать
1 | 0

28-11-2019 20:33  

Отключить всю рекламу на сайте

26-08-2016 06:59 СуперБобровы Скачать торрент  

Весёлый фильм, посмеяться можно)piratbit.pw



26-08-2016 13:23 СуперБобровы Скачать торрент  

Смотрибельно. Ну, не плохо, короче!piratbit.pw



    Дорогой пользователь! Огромная просьба, поблагодарите релизера, оцените раздачу и оставьте свои комментарий, если Вы скачали СуперБобровы через торрент бесплатно! Внесите свою лепту в развитие PiratBit!
    Комментировать посты могут только пользователи прошедшие не сложную регистрацию
    Показать сообщения:    

    СуперБобровы через торрент
    Скачать бесплатно СуперБобровы
    СуперБобровы скачать торрент
    СуперБобровы смотреть онлайн
    Cкачать фильм СуперБобровы бесплатно
    СуперБобровы скачать торрент в хорошем качестве
    СуперБобровы смотреть онлайн бесплатно в хорошем качестве


    Вы не можете начинать темы
    Вы не можете отвечать на сообщения
    Вы не можете редактировать свои сообщения
    Вы не можете удалять свои сообщения
    Вы не можете голосовать в опросах
    Вы не можете прикреплять файлы к сообщениям
    Вы можете скачивать файлы