1 сезон

3 сезон

iTunes

1

iTunes

DUB Netflix

iTunes

13

1 сезон

RePack

30

Deluxe

pack

Легкие деньги

ВАЖНО

ИГРА 18+

pack

RePack

MK11

RePack

jed

RePack

fifa19

RePack

RDR2

RePack

NEED FOR SPEED™ PAYBACK

4 сезон

9 сезон

Бесстыжие 9 сезон

Все сериалы

все сериалы на PB.wtf

RePack

FAR CRY 5

Anonymous, доброй ночи, мы не успеваем до 1 числа собрать деньги на оплату серверов, помогите нам пожалуйста в это трудное время. В качестве благодарности мы отключим Вам всю рекламу на сайте (укажите свой ник в строку Ваше имя)!

×
  
Magnet ссылка

Беспредел на окраине / Suburban Mayhem (Пол Голдман) [2006 г., триллер, драма, криминал, HDRip, Профессиональный (двухголосый)] piratbit.pw

Беспредел на окраине через торрент piratbit.pw

Размер: 1.46 GB | Добавлен: 4 года 10 мес. назад | Торрент скачан:43 раза
Скачать  

16-08-2016 17:28 Беспредел на окраине Скачать торрент  

Беспредел на окраине / Suburban Mayhem Год выпуска: 2006
Страна: Австралия
Жанр: триллер, драма, криминал
Продолжительность: 01:25:34
Перевод: Профессиональный (двухголосый закадровый) "Elrom"
Субтитры: Отсутствуют

Режиссер: Пол Голдман
Продюссер: Леа Чёрчилл-Браун, Джен Чэпман
Сценарий: Элис Белл

Бюджет: AUD 4 000 000
Премьера в мире: 24 мая 2006

лицам до 17 лет обязательно присутствие взрослого
http://www.imdb.com/title/tt0450506/



В ролях: Эмили Барклай, Стив Бастони, Лоуренс Брюлс, Майкл Дорман, Энтони Хэйес, Женевьева Лемон, Роберт Морган, Сьюзэн Прайор, Миа Васиковска, Кристин Армстронг

Описание: История матери одиночки Катрины, которая не остановится ни перед чем, даже перед убийством, чтобы достичь своей цели. Мир Катрины — это криминал и быстрые машины. Когда её отец грозит связаться с социальными службами и забрать её ребёнка, Катрина решает устроить беспредел на окраине, даже не подозревая насколько это шокирует общество и какую зловещую славу она приобретёт в результате.

Качество: HDRip
Формат: AVI
Видео кодек: XviD
Аудио кодек: AC3
Видео: 720x400 (1.80:1), 25 fps, XviD, 2046 kbps, 0.28 bit/pixel
Аудио#1: русский, 48 kHz, AC3 Dolby Digital, 2/0 (L,R) ch, 192 kbps
Аудио#2: английский, 48 kHz, AC3 Dolby Digital, 2/0 (L,R) ch, 192 kbps
скриншот  скриншот  скриншот  скриншот  скриншот  скриншот  

Код:

General
Complete name                            : E:\Ubiistvo _v_prigorode_1.46.avi
Format                                   : AVI
Format/Info                              : Audio Video Interleave
File size                                : 1.46 GiB
Duration                                 : 1h 25mn
Overall bit rate                         : 2 446 Kbps
Writing application                      : VirtualDubMod 1.5.10.2 (build 2540/release)
Writing library                          : VirtualDubMod build 2540/release

Video
ID                                       : 0
Format                                   : MPEG-4 Visual
Format profile                           : Advanced Simple@L5
Format settings, BVOP                    : 1
Format settings, QPel                    : No
Format settings, GMC                     : No warppoints
Format settings, Matrix                  : Default (MPEG)
Codec ID                                 : XVID
Codec ID/Hint                            : XviD
Duration                                 : 1h 25mn
Bit rate                                 : 2 048 Kbps
Width                                    : 720 pixels
Height                                   : 400 pixels
Display aspect ratio                     : 16:9
Frame rate                               : 25.000 fps
Color space                              : YUV
Chroma subsampling                       : 4:2:0
Bit depth                                : 8 bits
Scan type                                : Progressive
Compression mode                         : Lossy
Bits/(Pixel*Frame)                       : 0.284
Stream size                              : 1.22 GiB (84%)
Writing library                          : XviD 58

Audio #1
ID                                       : 1
Format                                   : AC-3
Format/Info                              : Audio Coding 3
Mode extension                           : CM (complete main)
Format settings, Endianness              : Big
Codec ID                                 : 2000
Duration                                 : 1h 25mn
Bit rate mode                            : Constant
Bit rate                                 : 192 Kbps
Channel count                            : 2 channels
Channel positions                        : Front: L R
Sampling rate                            : 48.0 KHz
Bit depth                                : 16 bits
Compression mode                         : Lossy
Stream size                              : 118 MiB (8%)
Alignment                                : Split accross interleaves
Interleave, duration                     : 40 ms (1.00 video frame)
Interleave, preload duration             : 500 ms

Audio #2
ID                                       : 2
Format                                   : AC-3
Format/Info                              : Audio Coding 3
Mode extension                           : CM (complete main)
Format settings, Endianness              : Big
Codec ID                                 : 2000
Duration                                 : 1h 25mn
Bit rate mode                            : Constant
Bit rate                                 : 192 Kbps
Channel count                            : 2 channels
Channel positions                        : Front: L R
Sampling rate                            : 48.0 KHz
Bit depth                                : 16 bits
Compression mode                         : Lossy
Stream size                              : 118 MiB (8%)
Alignment                                : Split accross interleaves
Interleave, duration                     : 40 ms (1.00 video frame)
Interleave, preload duration             : 500 ms


piratbit.pw



Скачать Беспредел на окраине через торрент http://s017.radikal.ru/i415/1608/d6/92aaa78a1b50.jpg Скачать фильм Беспредел на окраине через торрент бесплантно в хорошем качестве Описание: История матери одиночки Катрины, которая не остановится ни перед чем, даже перед убийством, чтобы достичь своей цели. Мир Катрины ... 10 10 1
Торрент: Зарегистрирован [2016-08-16 17:28] · скачан: 43 раз
Статус: √ проверено
Размер: 1.46 GB
Как cкачать? Как скачать Беспредел на окраине через торрент | UTorrent

28-11-2019 20:33  

Отключить всю рекламу на сайте

17-08-2016 00:40 Беспредел на окраине Скачать торрент  

Как фильм?piratbit.pw



17-08-2016 05:00 Беспредел на окраине Скачать торрент  

bober100 писал(а):

Как фильм?

piratbit.pw



17-08-2016 05:43 Беспредел на окраине Скачать торрент  

sanekbest1 писал(а):

bober100 писал(а):

Как фильм?


Всё понял, Спасибо!) piratbit.pw



    Дорогой пользователь! Огромная просьба, поблагодарите релизера, оцените раздачу и оставьте свои комментарий, если Вы скачали Беспредел на окраине через торрент бесплатно! Внесите свою лепту в развитие PiratBit!
    Комментировать посты могут только пользователи прошедшие не сложную регистрацию
    Показать сообщения:    

    Беспредел на окраине через торрент
    Скачать бесплатно Беспредел на окраине
    Беспредел на окраине скачать торрент
    Беспредел на окраине смотреть онлайн
    Cкачать фильм Беспредел на окраине бесплатно
    Беспредел на окраине скачать торрент в хорошем качестве
    Беспредел на окраине смотреть онлайн бесплатно в хорошем качестве


    Вы не можете начинать темы
    Вы не можете отвечать на сообщения
    Вы не можете редактировать свои сообщения
    Вы не можете удалять свои сообщения
    Вы не можете голосовать в опросах
    Вы не можете прикреплять файлы к сообщениям
    Вы можете скачивать файлы