1 сезон

3 сезон

iTunes

1

iTunes

DUB Netflix

iTunes

13

1 сезон

RePack

30

Deluxe

pack

Легкие деньги

ВАЖНО

ИГРА 18+

pack

RePack

MK11

RePack

jed

RePack

fifa19

RePack

RDR2

RePack

NEED FOR SPEED™ PAYBACK

4 сезон

9 сезон

Бесстыжие 9 сезон

Все сериалы

все сериалы на PB.wtf

RePack

FAR CRY 5

Anonymous, доброй ночи, мы не успеваем до 1 числа собрать деньги на оплату серверов, помогите нам пожалуйста в это трудное время. В качестве благодарности мы отключим Вам всю рекламу на сайте (укажите свой ник в строку Ваше имя)!

×
  
Magnet ссылка

Остров сокровищ / L Ile aux Tresors (Ален Берберян) [2007, Комедия, приключения, BDRip] DUB piratbit.pw

Остров сокровищ через торрент piratbit.pw

Размер: 2.18 GB | Добавлен: 4 года 10 мес. назад | Торрент скачан:139 раз
Скачать  

02-08-2016 05:21 Остров сокровищ Скачать торрент  

Название: Остров сокровищ
Оригинальное название: L' Ile aux Tresors
Год выхода: 2007
Жанр: Комедия, приключения
Режиссер: Ален Берберян
В ролях: Жерар Жюньо, Элис Тальони, Жан-Поль Рув, Винсент Ротье, Майкл Калкин, Сирилл Элдин, Франсуа Леванталь, Стефан Мецгер, Чике Оконкво, Джон Радо, Оливье Шнайдер, Ласло Сили, Тамаш Варга, Альберт Голдберг, Дидье Фламан, Тивадар Тёрёк, Паскаль Геган, Жан-Христоф Гербет, Николас Хакенберг

Описание:
Остров сокровищ от Берберяна открывается сценой, в которой вдребезги пьяный доктор Ливси после кровавого боя отрезает Сильверу совсем не ту конечность, в результате чего тот и оказывается одноногим — и это только начало! Любопытно и то, что эсквайр Трелони по Берберяну оказывается женщиной…



Страна: Франция, Великобритания, Венгрия
Студия: FIT Productions, Studio Eight Productions, ASP
Продолжительность: 01:39:16
Перевод: Дублированный

Файл
Качество: BDRip
Формат: AVI
Видео: XviD, 2230 Кбит/с, 720x304, 23.976 кадр/с
Аудио #1: AC3, 6 ch, 448 Кбит/с, 48 kHz | Русский
Аудио #2: AC3, 6 ch, 448 Кбит/с, 48 kHz | Французский
Релиз от: Koenig
Общее
Полное имя : E:\Раздача\L.Ile.Aux.Tresors.2007.BDRip.avi
Формат : AVI
Формат/Информация : Audio Video Interleave
Профиль формата : OpenDML
Размер файла : 2,18 Гбайт
Продолжительность : 1 ч. 39 м.
Общий поток : 3143 Кбит/сек
Программа кодирования : VirtualDubMod 1.5.10.2 (build 2540/release)
Библиотека кодирования : VirtualDubMod build 2540/release

Видео
Идентификатор : 0
Формат : MPEG-4 Visual
Профиль формата : Advanced Simple@L5
Параметр BVOP формата : 1
Параметр QPel формата : Нет
Параметр GMC формата : Без точки перехода
Параметр матрицы формата : Default (H.263)
Идентификатор кодека : XVID
Идентификатор кодека/Подсказка : XviD
Продолжительность : 1 ч. 39 м.
Битрейт : 2230 Кбит/сек
Ширина : 720 пикселей
Высота : 304 пикселя
Соотношение сторон : 2,35:1
Частота кадров : 23,976 кадра/сек
Цветовое пространство : YUV
Субдискретизация насыщенности : 4:2:0
Битовая глубина : 8 бит
Тип развёртки : Прогрессивная
Метод сжатия : С потерями
Бит/(Пиксели*Кадры) : 0.425
Размер потока : 1,55 Гбайт (71%)
Библиотека кодирования : XviD 1.2.0.dev47 (UTC 2006-11-01)

Аудио #1
Идентификатор : 1
Формат : AC-3
Формат/Информация : Audio Coding 3
Расширение режима : CM (complete main)
Параметр Endianness формата : Big
Идентификатор кодека : 2000
Продолжительность : 1 ч. 39 м.
Вид битрейта : Постоянный
Битрейт : 448 Кбит/сек
Каналы : 6 каналов
Расположение каналов : Front: L C R, Side: L R, LFE
Частота : 48,0 КГц
Метод сжатия : С потерями
Размер потока : 318 Мбайт (14%)
Выравнивание : Разделение по промежуткам
Продолжительность промежутка : 42 мс. (1,00 видеокадр)
Время предзагрузки промежутка : 500 мс.

Аудио #2
Идентификатор : 2
Формат : AC-3
Формат/Информация : Audio Coding 3
Расширение режима : CM (complete main)
Параметр Endianness формата : Big
Идентификатор кодека : 2000
Продолжительность : 1 ч. 39 м.
Вид битрейта : Постоянный
Битрейт : 448 Кбит/сек
Каналы : 6 каналов
Расположение каналов : Front: L C R, Side: L R, LFE
Частота : 48,0 КГц
Метод сжатия : С потерями
Размер потока : 318 Мбайт (14%)
Выравнивание : Разделение по промежуткам
Продолжительность промежутка : 42 мс. (1,00 видеокадр)
Время предзагрузки промежутка : 500 мс.
piratbit.pw



Скачать Остров сокровищ через торрент https://pic1.kartinco.top/images/10/n4jzb.jpg Скачать фильм Остров сокровищ через торрент бесплантно в хорошем качестве Описание: Остров сокровищ от Берберяна открывается сценой, в которой вдребезги пьяный доктор Ливси после кровавого боя отрезает Сильверу ... 10 10 6
Торрент: Зарегистрирован [2016-08-02 05:21] · скачан: 139 раз
Статус: √ проверено
Размер: 2.18 GB
Как cкачать? Как скачать Остров сокровищ через торрент | UTorrent

% Раздел Тема Автор DL S | L
Фильмы [HD 720p, 1080p] (Хороший звук DUB, MVO) [ 4.37 GB ] Остров сокровищ / L' Ile aux Tresors [2007 BDRip 720p] DUB koenig Скачать
1 | 0

28-11-2019 20:33  

Отключить всю рекламу на сайте

02-08-2016 12:10 Остров сокровищ Скачать торрент  

Комедия по ходу угарная)piratbit.pw



    Дорогой пользователь! Огромная просьба, поблагодарите релизера, оцените раздачу и оставьте свои комментарий, если Вы скачали Остров сокровищ через торрент бесплатно! Внесите свою лепту в развитие PiratBit!
    Комментировать посты могут только пользователи прошедшие не сложную регистрацию
    Показать сообщения:    

    Остров сокровищ через торрент
    Скачать бесплатно Остров сокровищ
    Остров сокровищ скачать торрент
    Остров сокровищ смотреть онлайн
    Cкачать фильм Остров сокровищ бесплатно
    Остров сокровищ скачать торрент в хорошем качестве
    Остров сокровищ смотреть онлайн бесплатно в хорошем качестве


    Вы не можете начинать темы
    Вы не можете отвечать на сообщения
    Вы не можете редактировать свои сообщения
    Вы не можете удалять свои сообщения
    Вы не можете голосовать в опросах
    Вы не можете прикреплять файлы к сообщениям
    Вы можете скачивать файлы