Ссылка на приватное зеркало всего за 1$. Внимание количество ограничено!!!

iTunes

iTunes

iTunes

1

iTunes

iTunes

iTunes

iTunes

iTunes

30
pack

$ от Little Big

ВАЖНО

!!Акция!!

Alien_RageХит недели

RePack

Resident Evil 21

ИГРА 18+

pack

RePack

jed

!!Акция!!

Alien_Rage

RePack

fifa19

RePack

Assassins Creed: Odyssey

RePack

NEED FOR SPEED™ PAYBACK

4 сезон

9 сезон

Бесстыжие 9 сезон

Все сериалы

все сериалы на PB.wtf

RePack

FAR CRY 5
  

Факультет / The Faculty (Роберт Родригес) [1998, ужасы, фантастика, триллер, комедия, детектив, BDRip 1080p by msltel] MVO, DVO, 2 x AVO, VO (профессиональный) piratbit.pw

Факультет через торрент piratbit.pw

Размер: 17.07 GB | Добавлен: 3 года 11 мес. назад | Торрент скачан:44 раза
Скачать  

17-07-2016 12:28 Факультет Скачать торрент  

Название: Факультет
Оригинальное название: The Faculty
Год выпуска: 1998
Страна: США
Жанр: ужасы, фантастика, триллер, комедия, детектив
Продолжительность: 01:44:11
Перевод: профессиональный многоголосый, профессиональный двухголосый, профессиональный одноголосый, авторский

Режиссёр: Роберт Родригес

В ролях: Джош Хартнетт, Элайджа Вуд, Джордана Брюстер, Клеа Дювалл, Лора Харрис, Шон Хэтоси, Сальма Хайек, Фамке Янссен, Пайпер Лори, Кристофер МакДональд, Биби Нойуэрт, Роберт Патрик, Ашер, Джон Стюарт, Дэниэл фон Барген, Джон Абрахамс, Саммер Феникс, Сьюзэн Уиллис, Пит Янссен, Кристина Родригез, Дэнни Мастерсон, Уайли Уиггинс, Гарри Джей Ноулз, Донна Кэйси, Луис Блэк, Эрик Джангманн, Крис Витейчук, Джим Джонстон, Либби Виллари, Дуэйн Мартин, Кэтерин Уиллис, Майк Лутс, Дуглас Арниокоски

Описание: Колледж Хэррингтон давно утратил свою первозданность. Его обшарпанные коридоры ежедневно заполняет будущее Америки — одиночки и лидеры, пижоны и наркоманы, умники и кретины. Подобно подросткам, везде и всюду они ведут постоянную борьбу друг с другом. Но однажды студенты делают ужасающее открытие: их преподаватели — пришельцы с другой планеты! Столкнувшись с вызовом, который они даже не могли себе вообразить, бывшие враги вынуждены объединиться, чтобы спастись от инопланетного вторжения...



Качество: BDRip 1080p Сравнение с исходником
Формат: MKV
Видео: MPEG-4 AVC, 17.8 Mбит/с, 1920x1080, 23,976 кадра/с
Аудио 1: русский, AC3, 448 kbps, 6 ch, 48 kHz [профессиональный многоголосый, CTC]
Аудио 2: русский, DTS, 1509 kbps, 6 ch, 48 kHz [профессиональный двухголосый, R5]
Аудио 3: русский, AC3, 448 kbps, 6 ch, 48 kHz [авторский, Андрей Гаврилов]
Аудио 4: русский, DTS, 1509 kbps, 6 ch, 48 kHz [авторский, Юрий Живов]
Аудио 5: русский, AC3, 192 kbps, 2 ch, 48 kHz [профессиональный одноголосый, диктор CDV]
Аудио 6: английский, DTS, 1509 kbps, 6 ch, 48 kHz [оригинал]
Субтитры 1: русские
Субтитры 2: английские
Общее
Уникальный идентификатор : 212397952467817633622097802893170404284 (0x9FCA5B90D04A3F0C82AAA654C9056BBC)
Полное имя : D:\Video\Факультет.1998.BDRip.1080p.mkv
Формат : Matroska
Версия формата : Version 4 / Version 2
Размер файла : 17,1 Гбайт
Продолжительность : 1 ч. 44 м.
Общий поток : 23,5 Мбит/сек
Дата кодирования : UTC 2016-07-17 07:46:12
Программа кодирования : mkvmerge v8.2.0 ('World of Adventure') 64bit
Библиотека кодирования : libebml v1.3.1 + libmatroska v1.4.2

Видео
Идентификатор : 1
Формат : AVC
Формат/Информация : Advanced Video Codec
Профиль формата : High@L4.1
Параметр CABAC формата : Да
Параметр ReFrames формата : 4 кадра
Идентификатор кодека : V_MPEG4/ISO/AVC
Продолжительность : 1 ч. 44 м.
Битрейт : 17,8 Мбит/сек
Ширина : 1920 пикселей
Высота : 1080 пикселей
Соотношение сторон : 16:9
Режим частоты кадров : Постоянный
Частота кадров : 23,976 (24000/1001) кадра/сек
Цветовое пространство : YUV
Субдискретизация насыщенности : 4:2:0
Битовая глубина : 8 бит
Тип развёртки : Прогрессивная
Бит/(Пиксели*Кадры) : 0.359
Размер потока : 13,0 Гбайт (76%)
Библиотека кодирования : x264 core 146 r2538 121396c
Настройки программы : cabac=1 / ref=4 / deblock=1:-3:-3 / analyse=0x3:0x113 / me=umh / subme=10 / psy=1 / psy_rd=1.00:0.15 / mixed_ref=1 / me_range=32 / chroma_me=1 / trellis=2 / 8x8dct=1 / cqm=0 / deadzone=21,11 / fast_pskip=1 / chroma_qp_offset=-3 / threads=6 / lookahead_threads=1 / sliced_threads=0 / nr=0 / decimate=1 / interlaced=0 / bluray_compat=0 / constrained_intra=0 / bframes=10 / b_pyramid=2 / b_adapt=2 / b_bias=0 / direct=1 / weightb=1 / open_gop=0 / weightp=2 / keyint=230 / keyint_min=23 / scenecut=40 / intra_refresh=0 / rc_lookahead=40 / rc=crf / mbtree=0 / crf=18.2 / qcomp=0.60 / qpmin=0 / qpmax=69 / qpstep=4 / vbv_maxrate=40000 / vbv_bufsize=50000 / crf_max=0.0 / nal_hrd=none / filler=0 / ip_ratio=1.40 / pb_ratio=1.30 / aq=1:1.00
Язык : English
Default : Да
Forced : Нет

Аудио #1
Идентификатор : 2
Формат : AC-3
Формат/Информация : Audio Coding 3
Расширение режима : CM (complete main)
Параметр Endianness формата : Big
Идентификатор кодека : A_AC3
Продолжительность : 1 ч. 44 м.
Вид битрейта : Постоянный
Битрейт : 448 Кбит/сек
Каналы : 6 каналов
Расположение каналов : Front: L C R, Side: L R, LFE
Частота : 48,0 КГц
Частота кадров : 31,250 кадров/сек (1536 spf)
Метод сжатия : С потерями
Размер потока : 334 Мбайт (2%)
Заголовок : MVO (CTC)
Язык : Russian
Default : Да
Forced : Нет

Аудио #2
Идентификатор : 3
Формат : DTS
Формат/Информация : Digital Theater Systems
Режим : 16
Параметр Endianness формата : Big
Идентификатор кодека : A_DTS
Продолжительность : 1 ч. 44 м.
Вид битрейта : Постоянный
Битрейт : 1510 Кбит/сек
Каналы : 6 каналов
Расположение каналов : Front: L C R, Side: L R, LFE
Частота : 48,0 КГц
Частота кадров : 93,750 кадра/сек (512 spf)
Битовая глубина : 24 бит
Метод сжатия : С потерями
Размер потока : 1,10 Гбайт (6%)
Заголовок : DVO (R5)
Язык : Russian
Default : Нет
Forced : Нет

Аудио #3
Идентификатор : 4
Формат : AC-3
Формат/Информация : Audio Coding 3
Расширение режима : CM (complete main)
Параметр Endianness формата : Big
Идентификатор кодека : A_AC3
Продолжительность : 1 ч. 44 м.
Вид битрейта : Постоянный
Битрейт : 448 Кбит/сек
Каналы : 6 каналов
Расположение каналов : Front: L C R, Side: L R, LFE
Частота : 48,0 КГц
Частота кадров : 31,250 кадров/сек (1536 spf)
Метод сжатия : С потерями
Размер потока : 334 Мбайт (2%)
Заголовок : AVO (Андрей Гаврилов)
Язык : Russian
Default : Нет
Forced : Нет

Аудио #4
Идентификатор : 5
Формат : DTS
Формат/Информация : Digital Theater Systems
Режим : 16
Параметр Endianness формата : Big
Идентификатор кодека : A_DTS
Продолжительность : 1 ч. 44 м.
Вид битрейта : Постоянный
Битрейт : 1510 Кбит/сек
Каналы : 6 каналов
Расположение каналов : Front: L C R, Side: L R, LFE
Частота : 48,0 КГц
Частота кадров : 93,750 кадра/сек (512 spf)
Битовая глубина : 24 бит
Метод сжатия : С потерями
Размер потока : 1,10 Гбайт (6%)
Заголовок : AVO (Юрий Живов)
Язык : Russian
Default : Нет
Forced : Нет

Аудио #5
Идентификатор : 6
Формат : AC-3
Формат/Информация : Audio Coding 3
Расширение режима : CM (complete main)
Параметр Endianness формата : Big
Идентификатор кодека : A_AC3
Продолжительность : 1 ч. 44 м.
Вид битрейта : Постоянный
Битрейт : 192 Кбит/сек
Каналы : 2 канала
Расположение каналов : Front: L R
Частота : 48,0 КГц
Частота кадров : 31,250 кадров/сек (1536 spf)
Метод сжатия : С потерями
Размер потока : 143 Мбайт (1%)
Заголовок : профессиональный одноголосый, Максим Латышев (диктор CDV)
Язык : Russian
Default : Нет
Forced : Нет

Аудио #6
Идентификатор : 7
Формат : DTS
Формат/Информация : Digital Theater Systems
Режим : 16
Параметр Endianness формата : Big
Идентификатор кодека : A_DTS
Продолжительность : 1 ч. 44 м.
Вид битрейта : Постоянный
Битрейт : 1509 Кбит/сек
Каналы : 6 каналов
Расположение каналов : Front: L C R, Side: L R, LFE
Частота : 48,0 КГц
Частота кадров : 93,750 кадра/сек (512 spf)
Битовая глубина : 24 бит
Метод сжатия : С потерями
Размер потока : 1,10 Гбайт (6%)
Заголовок : original
Язык : English
Default : Нет
Forced : Нет

Текст #1
Идентификатор : 8
Формат : UTF-8
Идентификатор кодека : S_TEXT/UTF8
Идентификатор кодека/Информация : UTF-8 Plain Text
Продолжительность : 1 ч. 38 м.
Битрейт : 66 бит/сек
Count of elements : 912
Размер потока : 47,8 Кбайт (0%)
Заголовок : русские
Язык : Russian
Default : Нет
Forced : Нет

Текст #2
Идентификатор : 9
Формат : UTF-8
Идентификатор кодека : S_TEXT/UTF8
Идентификатор кодека/Информация : UTF-8 Plain Text
Продолжительность : 1 ч. 38 м.
Битрейт : 56 бит/сек
Count of elements : 1119
Размер потока : 40,6 Кбайт (0%)
Заголовок : английские
Язык : English
Default : Нет
Forced : Нет
piratbit.pw



Скачать Факультет через торрент http://s009.radikal.ru/i309/1607/23/0c9ffbffdf35.jpg Скачать фильм Факультет через торрент бесплантно в хорошем качестве Описание: Колледж Хэррингтон давно утратил свою первозданность. Его обшарпанные коридоры ежедневно заполняет будущее Америки — одиночки и ... 9.8 10 4
Info! Золотая раздача, скачанное не засчитывается.
Торрент: Зарегистрирован [2016-07-17 12:28] · скачан: 44 раз
Статус: √ проверено
Размер: 17.07 GB
Как cкачать? Как скачать Факультет через торрент | qTorrent

% Раздел Тема Автор DL S | L
Фильмы до 2000 г. [ 1.46 GB ] Факультет / The Faculty [1998 HDRip] killermax2013 Скачать
1 | 0
Фильмы до 2000 г. [ 2.16 GB ] Факультет / The Faculty [1998 HDRip-AVC] DVO R5 winchester00100010 Скачать
1 | 0
Фильмы [HD 720p, 1080p] (Хороший звук DUB, MVO) [ 6.61 GB ] Факультет / The Faculty [1998 BDRip 720p by msltel] MVO DVO 2 x AVO VO msltel Скачать
1 | 0
Фильмы до 2000 г. [ 740 MB ] Факультет / The Faculty [1998 HDRip] MVO stalonе Скачать
1 | 0

28-11-2019 20:33  

Отключить всю рекламу на сайте

17-07-2016 13:27 Факультет Скачать торрент  

Норм фильм так-то;)piratbit.pw



17-07-2016 17:22 Факультет Скачать торрент  

Сто процентное попадание)piratbit.pw



    Дорогой пользователь! Огромная просьба, поблагодарите релизера, оцените раздачу и оставьте свои комментарий, если Вы скачали Факультет через торрент бесплатно! Внесите свою лепту в развитие PiratBit!
    Комментировать посты могут только пользователи прошедшие не сложную регистрацию
    Показать сообщения:    

    Факультет через торрент
    Скачать бесплатно Факультет
    Факультет скачать торрент
    Факультет смотреть онлайн
    Cкачать фильм Факультет бесплатно
    Факультет скачать торрент в хорошем качестве
    Факультет смотреть онлайн бесплатно в хорошем качестве


    Вы не можете начинать темы
    Вы не можете отвечать на сообщения
    Вы не можете редактировать свои сообщения
    Вы не можете удалять свои сообщения
    Вы не можете голосовать в опросах
    Вы не можете прикреплять файлы к сообщениям
    Вы можете скачивать файлы