Ссылка на приватное зеркало всего за 1$. Внимание количество ограничено!!!

iTunes

1+1

iTunes

мы

MV0

1

WEB-DLRip

Джокер

Пифагор

Ведьмак / The Witcher сериал

iTunes

ПШазам

iTunes

Оно 2

iTunes

30
pack

Вам бонус

ВАЖНО

!!Акция!!

Alien_RageХит недели

RePack

Resident Evil 21

ИГРА 18+

pack

RePack

jed

!!Акция!!

Alien_Rage

RePack

fifa19

RePack

Assassins Creed: Odyssey

RePack

NEED FOR SPEED™ PAYBACK

4 сезон

9 сезон

Бесстыжие 9 сезон

Все сериалы

все сериалы на PB.wtf

RePack

FAR CRY 5
  

Дивергент, глава 3: За стеной / Allegiant (Роберт Швентке) [2016, фантастика, боевик, триллер, BDRip 720p, Дубляж] R.G.Resident piratbit.pw

Дивергент, глава 3: За стеной через торрент piratbit.pw

Размер: 4.93 GB | Добавлен: 3 года 7 мес. назад | Торрент скачан:1080 раз
Скачать  

15-07-2016 16:08 Дивергент, глава 3: За стеной Скачать торрент  

Дивергент, глава 3: За стеной / Allegiant
««Break the boundaries of your world»»

Год выпуска: 2016
Страна: США
Жанр: фантастика, боевик, триллер, детектив, приключения
Продолжительность: 02:00:33
Перевод: Дубляж
Субтитры: английские (Full), английские (SDH),
Режиссер: Роберт Швентке
В ролях:

Шейлин Вудли (Tris), Тео Джеймс (Four), Энсел Элгорт (Caleb), Зои Кравиц (Christina), Майлз Теллер (Peter), Джефф Дэниелс (David), Наоми Уоттс (Evelyn), Мэгги Кью (Tori), Билл Скарсгард (Matthew), Кейнан Лонсдейл (Uriah), Надиа Хилкер (Nita), Октавия Спенсер (Johanna)
Описание:
Трис и Фор впервые покидают город и своих близких и оказываются в опасном мире за стеной, отделяющей Чикаго, где им открывается шокирующая правда.
Они должны быстро разобраться, кому можно доверять, так как битва, разгорающаяся за стенами города, угрожает всему человечеству. Чтобы выжить, Трис придется сделать непростой выбор между мужеством, верностью, любовью и необходимостью идти на жертвы.
Мировая премьера: 8 марта 2016

MPAA: PG-13 - Детям до 13 лет просмотр не желателен
Качество: BDRip 720p Rip by schultz
Формат: MKV
Видео: AVC, 1280x534 (2.40:1), 4588 kbps, 23,976 fps, 0,280 bpp
Аудио №1: русский / AC3 / 5.1 / 48 kHz / 640 kbps / 16 bit
Аудио №2: английский / AC3 / 5.1 / 48 kHz / 640 kbps / 16 bit

Код:

General
Unique ID                                : 206712931922003878423265437200646517551 (0x9B8376698CD379FDAFE594F098B1B32F)
Complete name                            : D:\download\Allegiant 2016. BDRip 720р by schultz R.G.Resident.mkv
Format                                   : Matroska
Format version                           : Version 4 / Version 2
File size                                : 4.93 GiB
Duration                                 : 2h 0mn
Overall bit rate                         : 5 859 Kbps
Encoded date                             : UTC 2016-07-03 20:11:30
Writing application                      : mkvmerge v8.9.0 ('Father Daughter') 64bit
Writing library                          : libebml v1.3.3 + libmatroska v1.4.4
DURATION                                 : 02:00:33.280000000
NUMBER_OF_FRAMES                         : 226040
NUMBER_OF_BYTES                          : 578662400
_STATISTICS_WRITING_APP                  : mkvmerge v8.9.0 ('Father Daughter') 64bit
_STATISTICS_WRITING_DATE_UTC             : 2016-07-03 20:11:30
_STATISTICS_TAGS                         : BPS DURATION NUMBER_OF_FRAMES NUMBER_OF_BYTES

Video
ID                                       : 1
Format                                   : AVC
Format/Info                              : Advanced Video Codec
Format profile                           : High@L4.1
Format settings, CABAC                   : Yes
Format settings, ReFrames                : 11 frames
Codec ID                                 : V_MPEG4/ISO/AVC
Duration                                 : 2h 0mn
Bit rate                                 : 4 588 Kbps
Width                                    : 1 280 pixels
Height                                   : 534 pixels
Display aspect ratio                     : 2.40:1
Frame rate                               : 23.976 fps
Color space                              : YUV
Chroma subsampling                       : 4:2:0
Bit depth                                : 8 bits
Scan type                                : Progressive
Bits/(Pixel*Frame)                       : 0.280
Stream size                              : 3.76 GiB (76%)
Writing library                          : x264 core 146 r2538 121396c
Encoding settings                        : cabac=1 / ref=11 / deblock=1:-3:-3 / analyse=0x3:0x113 / me=umh / subme=11 / psy=1 / psy_rd=1.00:0.00 / mixed_ref=1 / me_range=48 / chroma_me=1 / trellis=2 / 8x8dct=1 / cqm=0 / deadzone=21,11 / fast_pskip=0 / chroma_qp_offset=-2 / threads=12 / lookahead_threads=3 / sliced_threads=0 / nr=0 / decimate=0 / interlaced=0 / bluray_compat=0 / constrained_intra=0 / bframes=12 / b_pyramid=2 / b_adapt=2 / b_bias=0 / direct=3 / weightb=1 / open_gop=0 / weightp=2 / keyint=240 / keyint_min=23 / scenecut=40 / intra_refresh=0 / rc_lookahead=40 / rc=2pass / mbtree=1 / bitrate=4588 / ratetol=1.0 / qcomp=0.60 / qpmin=0 / qpmax=69 / qpstep=4 / cplxblur=20.0 / qblur=0.5 / vbv_maxrate=14000 / vbv_bufsize=14000 / nal_hrd=none / filler=0 / ip_ratio=1.40 / aq=1:1.00
Language                                 : English
Default                                  : Yes
Forced                                   : No
DURATION                                 : 02:00:33.238000000
NUMBER_OF_FRAMES                         : 173424
NUMBER_OF_BYTES                          : 4138196690
_STATISTICS_WRITING_APP                  : mkvmerge v8.9.0 ('Father Daughter') 64bit
_STATISTICS_WRITING_DATE_UTC             : 2016-07-03 20:11:30
_STATISTICS_TAGS                         : BPS DURATION NUMBER_OF_FRAMES NUMBER_OF_BYTES

Audio #1
ID                                       : 2
Format                                   : AC-3
Format/Info                              : Audio Coding 3
Mode extension                           : CM (complete main)
Codec ID                                 : A_AC3
Duration                                 : 2h 0mn
Bit rate mode                            : Constant
Bit rate                                 : 640 Kbps
Channel(s)                               : 6 channels
Channel positions                        : Front: L C R, Side: L R, LFE
Sampling rate                            : 48.0 KHz
Bit depth                                : 16 bits
Compression mode                         : Lossy
Stream size                              : 552 MiB (11%)
Language                                 : Russian
Default                                  : Yes
Forced                                   : No

Audio #2
ID                                       : 3
Format                                   : AC-3
Format/Info                              : Audio Coding 3
Mode extension                           : CM (complete main)
Codec ID                                 : A_AC3
Duration                                 : 2h 0mn
Bit rate mode                            : Constant
Bit rate                                 : 640 Kbps
Channel(s)                               : 6 channels
Channel positions                        : Front: L C R, Side: L R, LFE
Sampling rate                            : 48.0 KHz
Bit depth                                : 16 bits
Compression mode                         : Lossy
Stream size                              : 552 MiB (11%)
Language                                 : English
Default                                  : No
Forced                                   : No

Text #1
ID                                       : 4
Format                                   : UTF-8
Codec ID                                 : S_TEXT/UTF8
Codec ID/Info                            : UTF-8 Plain Text
Title                                    : Full
Language                                 : English
Default                                  : No
Forced                                   : No

Text #2
ID                                       : 5
Format                                   : UTF-8
Codec ID                                 : S_TEXT/UTF8
Codec ID/Info                            : UTF-8 Plain Text
Title                                    : SDH
Language                                 : English
Default                                  : No
Forced                                   : No

Menu
00:00:00.000                             : en:Chapter 1
00:09:46.336                             : en:Chapter 2
00:16:54.305                             : en:Chapter 3
00:25:52.092                             : en:Chapter 4
00:32:45.213                             : en:Chapter 5
00:37:26.202                             : en:Chapter 6
00:45:49.538                             : en:Chapter 7
00:53:31.458                             : en:Chapter 8
00:58:18.245                             : en:Chapter 9
01:07:21.162                             : en:Chapter 10
01:13:46.714                             : en:Chapter 11
01:19:51.036                             : en:Chapter 12
01:26:40.237                             : en:Chapter 13
01:33:12.128                             : en:Chapter 14
01:40:24.060                             : en:Chapter 15
01:46:18.872                             : en:Chapter 16



piratbit.pw



Скачать Дивергент, глава 3: За стеной через торрент http://i77.fastpic.ru/big/2016/0417/a7/808a646271c761f7c7d87df3d366b3a7.png Скачать фильм Дивергент, глава 3: За стеной через торрент бесплантно в хорошем качестве Описание: Трис и Фор впервые покидают город и своих близких и оказываются в опасном мире за стеной, отделяющей Чикаго, где им открывается ... 9.2 10 24
Info! Золотая раздача, скачанное не засчитывается.
Торрент: Зарегистрирован [2016-07-15 16:08] · скачан: 1 080 раз
Статус: √ проверено
Размер: 4.93 GB
Как cкачать? Как скачать Дивергент, глава 3: За стеной через торрент | qTorrent

28-11-2019 20:33  

Отключить всю рекламу на сайте

15-07-2016 19:33 Дивергент, глава 3: За стеной Скачать торрент  

спс за раздачу! а где сэмпл?)piratbit.pw



    Дорогой пользователь! Огромная просьба, поблагодарите релизера, оцените раздачу и оставьте свои комментарий, если Вы скачали Дивергент, глава 3: За стеной через торрент бесплатно! Внесите свою лепту в развитие PiratBit!
    Комментировать посты могут только пользователи прошедшие не сложную регистрацию
    Показать сообщения:    

    Дивергент, глава 3: За стеной через торрент
    Скачать бесплатно Дивергент, глава 3: За стеной
    Дивергент, глава 3: За стеной скачать торрент
    Дивергент, глава 3: За стеной смотреть онлайн
    Cкачать фильм Дивергент, глава 3: За стеной бесплатно
    Дивергент, глава 3: За стеной скачать торрент в хорошем качестве
    Дивергент, глава 3: За стеной смотреть онлайн бесплатно в хорошем качестве


    Вы не можете начинать темы
    Вы не можете отвечать на сообщения
    Вы не можете редактировать свои сообщения
    Вы не можете удалять свои сообщения
    Вы не можете голосовать в опросах
    Вы не можете прикреплять файлы к сообщениям
    Вы можете скачивать файлы