Ссылка на приватное зеркало всего за 1$. Внимание количество ограничено!!!

OK

1+1

iTunes

мы

OK

1

WEB-DLRip

Джокер

Пифагор

Ведьмак / The Witcher сериал

Лицензия

ПШазам

ОК

Оно 2

iTunes

30
pack

Вам бонус

ВАЖНО

!!Акция!!

Alien_RageХит недели

RePack

Resident Evil 21

ИГРА 18+

pack

RePack

jed

!!Акция!!

Alien_Rage

RePack

fifa19

RePack

Assassins Creed: Odyssey

RePack

NEED FOR SPEED™ PAYBACK

4 сезон

9 сезон

Бесстыжие 9 сезон

Все сериалы

все сериалы на PB.wtf

RePack

FAR CRY 5
  

Как поднять миллион. Исповедь Z@drota (Клим Шипенко) [2014, Россия, драма, WEB-DLRip-AVC от sokol_ok] piratbit.pw

Как поднять миллион. Исповедь Z@drota через торрент piratbit.pw

Раздают: 2 [ 0 KB/s ]
Размер: 1.46 GB | Добавлен: 3 года 8 мес. назад | Торрент скачан:426 раз
Скачать  

13-05-2016 17:31 Как поднять миллион. Исповедь Z@drota Скачать торрент  

Как поднять миллион. Исповедь Z@drota


Страна: Россия
Жанр: драма
Год выпуска: 2014
Продолжительность: 01:29:23

Перевод: Не требуется (русский)
Cубтитры: нет
Оригинальная аудиодорожка: русский

Режиссер: Клим Шипенко

В ролях: Виктор Грудев, Дмитрий Калязин, Соня Карпунина, Анастасия Акатова, Николай Амосов, Александр Самойленко, Лидия Байрашевская, Михаил Бабичев, Любовь Толкалина, Михаил Довженко, Максим Дрозд, Михаил Ефремов

Описание:
Женя живет в маленьком провинциальном городке. Он просиживает за компьютерами сутками, не отвлекаясь на еду и сон. Однажды Женя выясняет: на виртуальной реальности можно неплохо заработать. Начав с порносайтов, юноша вскоре получает свои первые деньги. Это в корне меняет его жизнь: больше он - не школьный изгой. Вчерашние недруги здороваются первыми, а самые красивые девочки ищут с ним встреч.
Развивая свой бизнес, Женя в итоге оказывается перед выбором: принять законы коррумпированного мира и стать своим в далекой от идеала реальности, или пойти наперерез могущественным структурам, поставив под удар себя и своих близких? Релиз:

Автор рипа: Stalker oK

Сэмпл

Качество видео: WEB-DLRip-AVC [RUTOR / WEB-DL / 1080p]
Формат видео: MKV
Видео кодек: AVC
Аудио кодек: AC3
Видео: 2142 Кбит/сек, 1128x472 (2.40:1), 25 кадр/сек, AVC
Аудио: русский, 192 Кбит/сек, 48 КГц, 16 бит, 2.0, AC3

Общее
Уникальный идентификатор : 239566247237666093386435710456900206711 (0xB43AC7EA803AB698A315BFC5C75DC077)
Полное имя : M:\1WEB-DL\Kak podnjat million. Ispoved Zadrota\Kak.podnjat.million.Ispoved.Zadrota.2014.WEB-DLRip-AVC.1.45Gb.stalkerok.new-team.mkv
Формат : Matroska
Версия формата : Version 4 / Version 2
Размер файла : 1,46 Гбайт
Продолжительность : 1 ч. 29 м.
Общий поток : 2335 Кбит/сек
Название фильма : Как поднять миллион. Исповедь Z@drota (2014) (New-Team) (Rip by Stalker oK)
Дата кодирования : UTC 2016-05-13 17:20:23
Программа кодирования : mkvmerge v8.6.1 ('Flying') 64bit
Библиотека кодирования : libebml v1.3.3 + libmatroska v1.4.4

Видео
Идентификатор : 1
Формат : AVC
Формат/Информация : Advanced Video Codec
Профиль формата : High@L4.1
Параметр CABAC формата : Да
Параметр ReFrames формата : 14 кадров
Идентификатор кодека : V_MPEG4/ISO/AVC
Продолжительность : 1 ч. 29 м.
Битрейт : 2142 Кбит/сек
Ширина : 1128 пикселей
Высота : 472 пикселя
Соотношение сторон : 2,40:1
Режим частоты кадров : Постоянный
Частота кадров : 25,000 кадров/сек
Цветовое пространство : YUV
Субдискретизация насыщенности : 4:2:0
Битовая глубина : 8 бит
Тип развёртки : Прогрессивная
Бит/(Пиксели*Кадры) : 0.161
Размер потока : 1,34 Гбайт (92%)
Заголовок : Как поднять миллион. Исповедь Z@drota (2014) (New-Team) (Rip by Stalker oK)
Библиотека кодирования : x264 core 148 r2665kMod a01e339
Настройки программы : cabac=1 / ref=14 / deblock=1:-3:-2 / analyse=0x3:0x133 / me=umh / subme=10 / psy=1 / fade_compensate=0.00 / psy_rd=1.00:0.02 / mixed_ref=1 / me_range=32 / chroma_me=1 / trellis=2 / 8x8dct=1 / cqm=0 / deadzone=21,11 / fast_pskip=0 / chroma_qp_offset=-3 / threads=12 / lookahead_threads=3 / sliced_threads=0 / nr=0 / decimate=0 / interlaced=0 / bluray_compat=0 / constrained_intra=0 / fgo=0 / bframes=14 / b_pyramid=2 / b_adapt=2 / b_bias=0 / direct=3 / weightb=1 / open_gop=0 / weightp=2 / keyint=250 / keyint_min=25 / scenecut=40 / intra_refresh=0 / rc_lookahead=60 / rc=2pass / mbtree=0 / bitrate=2142 / ratetol=1.0 / qcomp=0.65 / qpmin=0 / qpmax=69 / qpstep=4 / cplxblur=20.0 / qblur=0.5 / vbv_maxrate=50000 / vbv_bufsize=62500 / nal_hrd=none / filler=0 / ip_ratio=1.40 / pb_ratio=1.30 / aq=1:0.80
Default : Да
Forced : Нет

Аудио
Идентификатор : 2
Формат : AC-3
Формат/Информация : Audio Coding 3
Расширение режима : CM (complete main)
Параметр Endianness формата : Big
Идентификатор кодека : A_AC3
Продолжительность : 1 ч. 29 м.
Вид битрейта : Постоянный
Битрейт : 192 Кбит/сек
Каналы : 2 канала
Расположение каналов : Front: L R
Частота : 48,0 КГц
Частота кадров : 31,250 кадров/сек (1536 spf)
Метод сжатия : С потерями
Размер потока : 123 Мбайт (8%)
Язык : Russian
Default : Да
Forced : Нет
piratbit.pw



Скачать Как поднять миллион. Исповедь Z@drota через торрент http://i72.fastpic.ru/big/2015/0531/46/68ef8a2783b58e5344cc30bbd3f1b046.png Скачать фильм Как поднять миллион. Исповедь Z@drota через торрент бесплантно в хорошем качестве Описание:Женя живет в маленьком провинциальном городке. Он просиживает за компьютерами сутками, не отвлекаясь на еду и сон. Однажды Женя ... 6.1 10 8
Info! Золотая раздача, скачанное не засчитывается.
Торрент: Зарегистрирован [2016-05-13 17:31] · скачан: 426 раз
Статус: √ проверено
Размер: 1.46 GB
Как cкачать? Как скачать Как поднять миллион. Исповедь Z@drota через торрент | qTorrent

% Раздел Тема Автор DL S | L
Наши новые фильмы 2014 [ 746 MB ] Как поднять миллион. Исповедь Z@drota [2014 Россия WEB-DLRip-AVC от sokol_ok] sokol_ok Скачать
2 | 0
T Наши новые фильмы 2014 [ 1.37 GB ] Как поднять миллион. Исповедь Z@drota [2014 WEB DLRip] без рекламы $-DRON-$ Скачать
1 | 0
T Наши фильмы (HD, WEB-DL 720p, 1080p) [ 2.73 GB ] Как поднять миллион. Исповедь Z@drota [2014 WEB-DL 720p] без рекламы $-DRON-$ Скачать
1 | 0

28-11-2019 20:33  

Отключить всю рекламу на сайте

13-05-2016 18:39 Как поднять миллион. Исповедь Z@drota Скачать торрент  

название ужс, исповедь задрота, капец стоит смотреть?piratbit.pw



13-05-2016 20:05 Как поднять миллион. Исповедь Z@drota Скачать торрент  

bvncbv писал(а):

название ужс, исповедь задрота, капец стоит смотреть?

Ахахах хороший вопросpiratbit.pw



13-05-2016 20:26 Как поднять миллион. Исповедь Z@drota Скачать торрент  

Книга хорошая. Как кино - не знаю.
Лучше книгу почитайте. : ))piratbit.pw



13-05-2016 21:14 Как поднять миллион. Исповедь Z@drota Скачать торрент  

Отличный фильм !piratbit.pw



    Дорогой пользователь! Огромная просьба, поблагодарите релизера, оцените раздачу и оставьте свои комментарий, если Вы скачали Как поднять миллион. Исповедь Z@drota через торрент бесплатно! Внесите свою лепту в развитие PiratBit!
    Комментировать посты могут только пользователи прошедшие не сложную регистрацию
    Показать сообщения:    

    Как поднять миллион. Исповедь Z@drota через торрент
    Скачать бесплатно Как поднять миллион. Исповедь Z@drota
    Как поднять миллион. Исповедь Z@drota скачать торрент
    Как поднять миллион. Исповедь Z@drota смотреть онлайн
    Cкачать фильм Как поднять миллион. Исповедь Z@drota бесплатно
    Как поднять миллион. Исповедь Z@drota скачать торрент в хорошем качестве
    Как поднять миллион. Исповедь Z@drota смотреть онлайн бесплатно в хорошем качестве


    Вы не можете начинать темы
    Вы не можете отвечать на сообщения
    Вы не можете редактировать свои сообщения
    Вы не можете удалять свои сообщения
    Вы не можете голосовать в опросах
    Вы не можете прикреплять файлы к сообщениям
    Вы можете скачивать файлы