Ссылка на приватное зеркало нашего сайта всего за 1$. Внимание количество ограничено!!!

2 сезон

iTunes

iTunes

1

iTunes

iTunes

iTunes

WEBRip

iTunes

30
pack

Вам бонус

ВАЖНО

!!Акция!!

Alien_RageХит недели

RePack

Horizon Zero Dawn

ИГРА 18+

pack

RePack

jed

!!Акция!!

Alien_Rage

RePack

fifa19

RePack

Assassins Creed: Odyssey

RePack

NEED FOR SPEED™ PAYBACK

4 сезон

9 сезон

Бесстыжие 9 сезон

Все сериалы

все сериалы на PB.wtf

RePack

FAR CRY 5
  

Маршрут построен (Олег Асадулин) [2016 г., ужасы, триллер, WEB-DL 720p] Оригинал (iTunes) piratbit.pw

Маршрут построен через торрент piratbit.pw

Качают: 1 [ 0 KB/s ]
Размер: 2.63 GB | Добавлен: 4 года 4 мес. назад | Торрент скачан:197 раз
Скачать  

11-05-2016 09:24 Маршрут построен Скачать торрент  

Маршрут построен«Автомобиль-ведущий во мрак»
Год выпуска » 2016
Страна » Россия
Жанр » Ужасы, триллер
Продолжительность » 01:21:44
Перевод » Оригинал • iTunes
Субтитры » Отсутствуют

В ролях
» Светлана Устинова, Павел Чинарёв, Виталия Корниенко, Кристина Шаповалова, Сергей Сафронов, Илья Сафронов, Андрей Сафронов, Диана Мелисон, Александр Цёма

Режиссёр
» Олег Асадулин
Описание:
» Прошлой весной произошло страшное преступление - в результате ссоры муж убил жену, расчленил труп и спрятал в багажнике их автомобиля. Несмотря на попытки отвести от себя подозрение, убийца вскоре был арестован полицией. Андрей и Оля - семейная пара. Андрей покупает подозрительно дешевый автомобиль в хорошем состоянии. Тем же вечером, взяв свою пятилетнюю дочь, они отправляются в ночную поездку в другой город. В дороге Оля слышит какие-то странные звуки и говорит Андрею, что чувствует - с машиной что-то не то. Это вызывает раздражение Андрея, который ничего этого не замечает, и становится поводом для конфликта. Тем временем их дочка на заднем сидении общается с какой-то невидимой тетей, но родители не слышат. Призрак убитой женщины не любит семейных ссор, и наши герои в ее власти... Их маршрут уже построен.

• Качество » WEB-DL 720p
• Формат » MKV
• Видео кодек » AVC
• Аудио кодек » AC3
• Видео » 1280x538, MPEG-4 AVC ~3 961 kbps avg at 24 fps
• Аудио » Русский (AC-3/ 6 ch / 384 kbps / 48,0 КГц / 16 bit )




Бюджет: 45 000 000 руб.

В России:$ 803 427
Дата российской премьеры: 31 марта 2016, «Двадцатый Век Фокс СНГ»
Общее
Уникальный идентификатор : 221724811419801967671201964410778474668 (0xA6CEA53725345663A3786244A834D8AC)
Полное имя : E:\MarSHruTT.POstRoeNN.2O16.O.WEB-DL.72OP.mkv
Формат : Matroska
Версия формата : Version 2
Размер файла : 2,63 Гбайт
Продолжительность : 1 ч. 24 м.
Общий поток : 4433 Кбит/сек
Дата кодирования : UTC 2016-05-10 07:30:47
Программа кодирования : mkvmerge v8.3.0 ('Over the Horizon') 64bit
Библиотека кодирования : libebml v1.3.1 + libmatroska v1.4.2
DURATION : 01:24:51.680000000
NUMBER_OF_FRAMES : 159115
NUMBER_OF_BYTES : 244400640
_STATISTICS_WRITING_APP : mkvmerge v8.3.0 ('Over the Horizon') 64bit
_STATISTICS_WRITING_DATE_UTC : 2016-05-10 07:30:47
_STATISTICS_TAGS : BPS DURATION NUMBER_OF_FRAMES NUMBER_OF_BYTES

Видео
Идентификатор : 1
Формат : AVC
Формат/Информация : Advanced Video Codec
Профиль формата : Main@L3.1
Параметр CABAC формата : Нет
Параметр ReFrames формата : 2 кадра
Идентификатор кодека : V_MPEG4/ISO/AVC
Продолжительность : 1 ч. 24 м.
Битрейт : 3961 Кбит/сек
Ширина : 1280 пикселей
Высота : 538 пикселей
Соотношение сторон : 2,40:1
Режим частоты кадров : Постоянный
Частота кадров : 24,000 кадра/сек
Цветовое пространство : YUV
Субдискретизация насыщенности : 4:2:0
Битовая глубина : 8 бит
Тип развёртки : Прогрессивная
Бит/(Пиксели*Кадры) : 0.240
Размер потока : 2,35 Гбайт (89%)
Язык : English
Default : Да
Forced : Нет
Основные цвета : BT.709
Характеристики трансфера : BT.709
Коэффициенты матрицы : BT.709

Аудио
Идентификатор : 2
Формат : AC-3
Формат/Информация : Audio Coding 3
Расширение режима : CM (complete main)
Параметр Endianness формата : Big
Идентификатор кодека : A_AC3
Продолжительность : 1 ч. 24 м.
Вид битрейта : Постоянный
Битрейт : 384 Кбит/сек
Каналы : 6 каналов
Расположение каналов : Front: L C R, Side: L R, LFE
Частота : 48,0 КГц
Битовая глубина : 16 бит
Метод сжатия : С потерями
Размер потока : 233 Мбайт (9%)
Язык : Russian
Default : Да
Forced : Нет

Меню
00:00:00.000 : en:Глава 1
00:06:43.375 : en:Глава 2
00:10:04.833 : en:Глава 3
00:15:52.833 : en:Глава 4
00:20:29.041 : en:Глава 5
00:26:20.874 : en:Глава 6
00:30:55.124 : en:Глава 7
00:35:59.499 : en:Глава 8
00:40:50.790 : en:Глава 9
00:45:44.748 : en:Глава 10
00:51:18.248 : en:Глава 11
00:56:34.998 : en:Глава 12
01:01:42.998 : en:Глава 13
01:06:28.664 : en:Глава 14
01:11:22.247 : en:Глава 15
01:15:44.163 : en:Глава 16
01:20:37.621 : en:Глава 17
[/code]
скриншот   скриншот   скриншот  
piratbit.pw



Скачать Маршрут построен через торрент http://pic1.kartinco.top/images/10/qjilv.jpg Скачать фильм Маршрут построен через торрент бесплантно в хорошем качестве Описание:» Прошлой весной произошло страшное преступление - в результате ссоры муж убил жену, расчленил труп и спрятал в багажнике их ... 8.9 10 11
Торрент: Зарегистрирован [2016-05-11 09:24] · скачан: 197 раз
Статус: √ проверено
Размер: 2.63 GB
Как cкачать? Как скачать Маршрут построен через торрент | qTorrent

% Раздел Тема Автор DL S | L
Наши новые фильмы 2016 [ 1.36 GB ] Маршрут построен [2016 WEB-DLRip] Оригинал () Ворон Скачать
1 | 0
Наши новые фильмы 2016 [ 707 MB ] Маршрут построен [2016 WEB-DLRip] coc900 Скачать
1 | 0
Наши фильмы (HD, WEB-DL 720p, 1080p) [ 2.89 GB ] Маршрут построен [2016 WEB-DL 1080p] Оригинал () Ворон Скачать
1 | 0

28-11-2019 20:33  

Отключить всю рекламу на сайте

    Дорогой пользователь! Огромная просьба, поблагодарите релизера, оцените раздачу и оставьте свои комментарий, если Вы скачали Маршрут построен через торрент бесплатно! Внесите свою лепту в развитие PiratBit!
    Комментировать посты могут только пользователи прошедшие не сложную регистрацию
    Показать сообщения:    

    Маршрут построен через торрент
    Скачать бесплатно Маршрут построен
    Маршрут построен скачать торрент
    Маршрут построен смотреть онлайн
    Cкачать фильм Маршрут построен бесплатно
    Маршрут построен скачать торрент в хорошем качестве
    Маршрут построен смотреть онлайн бесплатно в хорошем качестве


    Вы не можете начинать темы
    Вы не можете отвечать на сообщения
    Вы не можете редактировать свои сообщения
    Вы не можете удалять свои сообщения
    Вы не можете голосовать в опросах
    Вы не можете прикреплять файлы к сообщениям
    Вы можете скачивать файлы