2 сезон

iTunes

WEBRip

1

2 сезон

iTunes

1 сезон

1 сезон

RePack

30

Новинка

ВАЖНО

ИГРА 18+

pack

RePack

MK11
pack

Легкие деньги

RePack

jed

RePack

fifa19

RePack

RDR2

RePack

NEED FOR SPEED™ PAYBACK

4 сезон

9 сезон

Бесстыжие 9 сезон

Все сериалы

все сериалы на PB.wtf

RePack

FAR CRY 5

Anonymous, доброй ночи, мы не успеваем собрать деньги на оплату серверов за февраль, помогите нам пожалуйста в это трудное время. В качестве благодарности мы отключим Вам всю рекламу на сайте (укажите свой ник в строку Ваше имя)!

×
  
Magnet ссылка

VA - 538 Dance Smash 2016 Vol.1 2016 / FLAC (image + .cue) / lossless / Dance, Pop, Club, House piratbit.pw

Скачать  

07-05-2016 08:36 VA - 538 Dance Smash 2016 Vol.1 2016 Скачать торрент  

VA - 538 Dance Smash 2016 Vol.1
Страна: All World
Жанр: Dance, Pop, Club, House
Год выпуска: 2016
Формат: FLAC (image + .cue)
Битрейт аудио: lossless
Продолжительность: 01:19:35
01. Mike Posner - I Took A Pill In Ibiza (Seeb Remix) 3:12
02. Major Lazer feat. Nyla & Fuse ODG - Light It Up (Remix) 2:45
03. Alan Walker - Faded 3:28
04. Armin van Buuren feat. Kensington - Heading Up High 3:48
05. Kygo feat. Maty Noyes - Stay 3:55
06. Tiesto & Oliver Heldens feat. Natalie La Rose - The Right Song 3:23
07. Robin Schulze & J.U.D.G.E. - Show Me Love 4:11
08. Jonas Blue feat. Dakota - Fast Car 3:27
09. Sigala feat. Bryn Christopher - Sweet Lovin' 3:21
10. Matt Simons - Catch & Release (Deepend Remix) 3:13
11. AlunaGeorge feat. Popcaan - I'm In Control 3:29
12. Tujamo & Taio Cruz - Booty Bounce 3:15
13. The Chainsmokers feat. ROZES - Roses 3:04
14. MOWE & Daniel Nitt - Lovers Friends 3:43
15. Maan - Perfect World 3:16
16. Duke Dumont - Ocean Drive 3:23
17. Riton feat. Kah-Lo - Rinse & Repeat 2:31
18. Time Square feat. Xavier Rudd - Follow The Sun 3:38
19. Eva Simons feat. Sidney Samson - Bludfire 3:06
20. Jay Hardway - Electric Elephants 2:52
21. Sigma feat. Rita Ora - Coming Home 3:13
22. Cheat Codes X Kriss Kross Amsterdam - Sex 3:46
23. Jan Hinke - 5UUR38Mix: 2016 Vol.1 5:38
Exact Audio Copy V1.0 beta 3 from 29. August 2011

Отчёт EAC об извлечении, выполненном 11. апреля 2016, 19:10

Various Artist / 538 Dance Smash 2016 vol.1

Дисковод: ASUS DRW-24F1ST a Adapter: 0 ID: 0

Режим чтения : Достоверность
Использование точного потока : Да
Отключение кэша аудио : Нет
Использование указателей C2 : Да

Коррекция смещения при чтении : 6
Способность читать области Lead-in и Lead-out : Нет
Заполнение пропущенных сэмплов тишиной : Да
Удаление блоков с тишиной в начале и конце : Нет
При вычислениях CRC использовались нулевые сэмплы : Да
Интерфейс : Встроенный Win32-интерфейс для Win NT/2000

Выходной формат : Пользовательский кодировщик
Выбранный битрейт : 768 kBit/s
Качество : Высокий
Добавление ID3-тега : Нет
Утилита сжатия : C:\Program Files (x86)\Exact Audio Copy\FLAC\FLAC.EXE
Дополнительные параметры : -V -8 -T "Date=%year%" -T "Genre=%genre%" %source%

TOC извлечённого CD

Трек | Старт | Длительность | Начальный сектор | Конечный сектор
---------------------------------------------------------------------
1 | 0:00.00 | 3:11.73 | 0 | 14397
2 | 3:11.73 | 2:44.45 | 14398 | 26742
3 | 5:56.43 | 3:27.49 | 26743 | 42316
4 | 9:24.17 | 3:47.71 | 42317 | 59412
5 | 13:12.13 | 3:54.39 | 59413 | 77001
6 | 17:06.52 | 3:22.50 | 77002 | 92201
7 | 20:29.27 | 4:11.12 | 92202 | 111038
8 | 24:40.39 | 3:26.68 | 111039 | 126556
9 | 28:07.32 | 3:20.74 | 126557 | 141630
10 | 31:28.31 | 3:13.14 | 141631 | 156119
11 | 34:41.45 | 3:28.70 | 156120 | 171789
12 | 38:10.40 | 3:15.04 | 171790 | 186418
13 | 41:25.44 | 3:03.50 | 186419 | 200193
14 | 44:29.19 | 3:43.36 | 200194 | 216954
15 | 48:12.55 | 3:16.09 | 216955 | 231663
16 | 51:28.64 | 3:22.43 | 231664 | 246856
17 | 54:51.32 | 2:30.48 | 246857 | 258154
18 | 57:22.05 | 3:38.35 | 258155 | 274539
19 | 61:00.40 | 3:05.53 | 274540 | 288467
20 | 64:06.18 | 2:51.69 | 288468 | 301361
21 | 66:58.12 | 3:13.00 | 301362 | 315836
22 | 70:11.12 | 3:46.26 | 315837 | 332812
23 | 73:57.38 | 5:38.22 | 332813 | 358184

Характеристики диапазона извлечения и сообщения об ошибках

Выбранный диапазон

Имя файла C:\Users\shuravi\Music\538 Dance Smash 2016 vol.1\Various Artist - 538 Dance Smash 2016 vol.1.wav

Пиковый уровень 96.6 %
Скорость извлечения 10.5 X
Качество диапазона 100.0 %
CRC теста F74136D2
CRC копии F74136D2
Копирование... OK

Ошибок не произошло

AccurateRip: сводка

Трек 1 отсутствует в базе данных
Трек 2 отсутствует в базе данных
Трек 3 отсутствует в базе данных
Трек 4 отсутствует в базе данных
Трек 5 отсутствует в базе данных
Трек 6 отсутствует в базе данных
Трек 7 отсутствует в базе данных
Трек 8 отсутствует в базе данных
Трек 9 отсутствует в базе данных
Трек 10 отсутствует в базе данных
Трек 11 отсутствует в базе данных
Трек 12 отсутствует в базе данных
Трек 13 отсутствует в базе данных
Трек 14 отсутствует в базе данных
Трек 15 отсутствует в базе данных
Трек 16 отсутствует в базе данных
Трек 17 отсутствует в базе данных
Трек 18 отсутствует в базе данных
Трек 19 отсутствует в базе данных
Трек 20 отсутствует в базе данных
Трек 21 отсутствует в базе данных
Трек 22 отсутствует в базе данных
Трек 23 отсутствует в базе данных

Ни одного трека нет в базе AccurateRip

Конец отчёта
piratbit.pw



Скачать
Чтобы иметь возможность скачивать с Торрент Трекера, нужно Зарегистрироваться

Как скачивать  ·  Рейтинг и ограничения

28-11-2019 20:33  

Отключить всю рекламу на сайте

07-05-2016 19:41 VA - 538 Dance Smash 2016 Vol.1 2016 Скачать торрент  

Кнопку спасибо не забывайте)piratbit.pw



    Дорогой пользователь! Огромная просьба, поблагодарите релизера, оцените раздачу и оставьте свои комментарий, если Вы скачали VA - 538 Dance Smash 2016 Vol.1 2016 через торрент бесплатно! Внесите свою лепту в развитие PiratBit!
    Комментировать посты могут только пользователи прошедшие не сложную регистрацию
    Показать сообщения:    

    VA - 538 Dance Smash 2016 Vol.1 2016 через торрент
    Скачать бесплатно VA - 538 Dance Smash 2016 Vol.1 2016
    VA - 538 Dance Smash 2016 Vol.1 2016 скачать торрент
    VA - 538 Dance Smash 2016 Vol.1 2016 смотреть онлайн
    Cкачать фильм VA - 538 Dance Smash 2016 Vol.1 2016 бесплатно
    VA - 538 Dance Smash 2016 Vol.1 2016 скачать торрент в хорошем качестве
    VA - 538 Dance Smash 2016 Vol.1 2016 смотреть онлайн бесплатно в хорошем качестве


    Вы не можете начинать темы
    Вы не можете отвечать на сообщения
    Вы не можете редактировать свои сообщения
    Вы не можете удалять свои сообщения
    Вы не можете голосовать в опросах
    Вы не можете прикреплять файлы к сообщениям
    Вы не можете скачивать файлы