1 сезон

1 сезон

iTunes

1

iTunes

Кинопоиск HD

iTunes

13

1 сезон

RePack

30

Deluxe

ВАЖНО

ИГРА 18+

pack

RePack

MK11
pack

Легкие деньги

RePack

jed

RePack

fifa19

RePack

RDR2

RePack

NEED FOR SPEED™ PAYBACK

4 сезон

9 сезон

Бесстыжие 9 сезон

Все сериалы

все сериалы на PB.wtf

RePack

FAR CRY 5
  
Magnet ссылка

Марко Поло / Marco Polo (Кевин Коннор / Kevin Connor) [2007, США, драма, приключения, BDRip-AVC от sokol_ok] MVO [Лицензия] piratbit.pw

Марко Поло через торрент piratbit.pw

Раздают: 1 [ 0 KB/s ]
Размер: 2.92 GB | Добавлен: 5 лет назад | Торрент скачан:104 раза
Скачать  

06-05-2016 12:29 Марко Поло Скачать торрент  

Марко Поло
Marco Polo


Страна: США
Жанр: драма, приключения

Год выпуска: 2007
Продолжительность: 01:28:47 + 01:28:15

Перевод: Профессиональный (многоголосый, закадровый) [Лицензия R5]
Субтитры: русские (полные)
Оригинальная аудиодорожка: нет

Режиссер: Кевин Коннор / Kevin Connor

В ролях: Иэн Сомерхолдер, Б.Д. Вонг, Дезире Энн Сиахаан, Брайан Деннехи, Кэй Тонг Лим, Кристиан Ли, Луо Ян, Майкл Ман-Кин Чоу, Марк Джакс, Алан Ширман, Майкл О’Хаган, Рамин Разаги Сефати

Описание:
13 век. Венецианский торговец Марко Поло сопровождает двух священников в путешествии на Восток ко двору Кублай Хана, монгольского завоевателя Востока с тем, чтобы обратить самую многочисленную и богатую нацию в христианство. Однако священники сомневаются в существовании китайского государства.
Ведь, в конечном счете, Господь положил Европу в центр Вселенной, и что может быть за ее пределами, как не одно сплошное варварство? Не будучи готовыми рисковать своими жизнями в горах Памира, священники отступают и бросают Марко, его отца и дядю наедине со снежными бурями и знойными пустынями. Измученные голодом, жаждой и палящий солнцем они продвигаются вперед в сердце владений Хана. Релиз:

Автор рипа: Stalker oK

Сэмпл

Качество видео: BDRip-AVC [BLUEBIRD / Blu-ray Disc / 1080p]
Формат видео: MKV
Видео кодек: AVC
Аудио кодек: AC3
Видео #1: 1902 Кбит/сек, 800*452 (16:9), в 23,976 (24000/1001) кадра/сек, AVC
Видео #2: 1916 Кбит/сек, 800*452 (16:9), в 23,976 (24000/1001) кадра/сек, AVC
Аудио: русский, 448 Кбит/сек, 48 КГц, 16 бит, 5.1, AC3
Навигация по главам: есть

Общее
Уникальный идентификатор : 183727979431340068289102195798552434322 (0x8A38B8C2B2B9F26ABDADA2B5D4A55692)
Полное имя : M:\Rips\Marco Polo\Marco.Polo.2007.BDRip-AVC\Marco.Polo.e01.2007.BDRip-AVC.MVO.1.45Gb.stalkerok.new-team.mkv
Формат : Matroska
Версия формата : Version 4 / Version 2
Размер файла : 1,46 Гбайт
Продолжительность : 1 ч. 28 м.
Общий поток : 2351 Кбит/сек
Название фильма : Marco Polo (2007) (New-Team) (Rip by Stalker oK)
Дата кодирования : UTC 2016-05-06 11:59:59
Программа кодирования : mkvmerge v8.6.1 ('Flying') 64bit
Библиотека кодирования : libebml v1.3.3 + libmatroska v1.4.4

Видео
Идентификатор : 1
Формат : AVC
Формат/Информация : Advanced Video Codec
Профиль формата : High@L4.1
Параметр CABAC формата : Да
Параметр ReFrames формата : 14 кадров
Идентификатор кодека : V_MPEG4/ISO/AVC
Продолжительность : 1 ч. 28 м.
Битрейт : 1902 Кбит/сек
Ширина : 800 пикселей
Высота : 452 пикселя
Соотношение сторон : 16:9
Режим частоты кадров : Постоянный
Частота кадров : 23,976 (24000/1001) кадра/сек
Цветовое пространство : YUV
Субдискретизация насыщенности : 4:2:0
Битовая глубина : 8 бит
Тип развёртки : Прогрессивная
Бит/(Пиксели*Кадры) : 0.219
Размер потока : 1,18 Гбайт (81%)
Заголовок : Marco Polo (2007) (New-Team) (Rip by Stalker oK)
Библиотека кодирования : x264 core 148 r2638 7599210
Настройки программы : cabac=1 / ref=14 / deblock=1:-3:-3 / analyse=0x3:0x133 / me=umh / subme=11 / psy=1 / psy_rd=1.00:0.10 / mixed_ref=1 / me_range=48 / chroma_me=1 / trellis=2 / 8x8dct=1 / cqm=0 / deadzone=21,11 / fast_pskip=0 / chroma_qp_offset=-3 / threads=12 / lookahead_threads=3 / sliced_threads=0 / nr=0 / decimate=0 / interlaced=0 / bluray_compat=0 / constrained_intra=0 / bframes=15 / b_pyramid=2 / b_adapt=2 / b_bias=0 / direct=3 / weightb=1 / open_gop=0 / weightp=2 / keyint=240 / keyint_min=23 / scenecut=40 / intra_refresh=0 / rc_lookahead=60 / rc=2pass / mbtree=0 / bitrate=1902 / ratetol=1.0 / qcomp=0.70 / qpmin=0 / qpmax=69 / qpstep=4 / cplxblur=20.0 / qblur=0.5 / vbv_maxrate=50000 / vbv_bufsize=62500 / nal_hrd=none / filler=0 / ip_ratio=1.40 / pb_ratio=1.30 / aq=3:0.90
Default : Да
Forced : Нет

Аудио
Идентификатор : 2
Формат : AC-3
Формат/Информация : Audio Coding 3
Расширение режима : CM (complete main)
Параметр Endianness формата : Big
Идентификатор кодека : A_AC3
Продолжительность : 1 ч. 28 м.
Вид битрейта : Постоянный
Битрейт : 448 Кбит/сек
Каналы : 6 каналов
Расположение каналов : Front: L C R, Side: L R, LFE
Частота : 48,0 КГц
Частота кадров : 31,250 кадров/сек (1536 spf)
Метод сжатия : С потерями
Размер потока : 284 Мбайт (19%)
Язык : Russian
Default : Да
Forced : Нет

Текст
Идентификатор : 3
Формат : UTF-8
Идентификатор кодека : S_TEXT/UTF8
Идентификатор кодека/Информация : UTF-8 Plain Text
Продолжительность : 1 ч. 26 м.
Битрейт : 78 бит/сек
Count of elements : 805
Размер потока : 49,7 Кбайт (0%)
Язык : Russian
Default : Нет
Forced : Нет

Меню
00:00:00.000 : en:Chapter 1
00:08:25.755 : en:Chapter 2
00:15:59.750 : en:Chapter 3
00:25:40.455 : en:Chapter 4
00:32:25.234 : en:Chapter 5
00:37:43.636 : en:Chapter 6
00:46:20.152 : en:Chapter 7
00:50:53.842 : en:Chapter 8
00:56:44.818 : en:Chapter 9
01:02:56.731 : en:Chapter 10
01:13:49.842 : en:Chapter 11
01:20:20.607 : en:Chapter 12
01:27:03.343 : en:Chapter 13

Общее
Уникальный идентификатор : 253557815632984732526047636645597281356 (0xBEC1757F7523F7B8BB5E8044B415FC4C)
Полное имя : M:\Rips\Marco Polo\Marco.Polo.2007.BDRip-AVC\Marco.Polo.e02.2007.BDRip-AVC.MVO.1.45Gb.stalkerok.new-team.mkv
Формат : Matroska
Версия формата : Version 4 / Version 2
Размер файла : 1,46 Гбайт
Продолжительность : 1 ч. 28 м.
Общий поток : 2365 Кбит/сек
Название фильма : Marco Polo (2007) (New-Team) (Rip by Stalker oK)
Дата кодирования : UTC 2016-05-06 12:05:09
Программа кодирования : mkvmerge v8.6.1 ('Flying') 64bit
Библиотека кодирования : libebml v1.3.3 + libmatroska v1.4.4

Видео
Идентификатор : 1
Формат : AVC
Формат/Информация : Advanced Video Codec
Профиль формата : High@L4.1
Параметр CABAC формата : Да
Параметр ReFrames формата : 14 кадров
Идентификатор кодека : V_MPEG4/ISO/AVC
Продолжительность : 1 ч. 28 м.
Битрейт : 1916 Кбит/сек
Ширина : 800 пикселей
Высота : 452 пикселя
Соотношение сторон : 16:9
Режим частоты кадров : Постоянный
Частота кадров : 23,976 (24000/1001) кадра/сек
Цветовое пространство : YUV
Субдискретизация насыщенности : 4:2:0
Битовая глубина : 8 бит
Тип развёртки : Прогрессивная
Бит/(Пиксели*Кадры) : 0.221
Размер потока : 1,18 Гбайт (81%)
Заголовок : Marco Polo (2007) (New-Team) (Rip by Stalker oK)
Библиотека кодирования : x264 core 148 r2638 7599210
Настройки программы : cabac=1 / ref=14 / deblock=1:-3:-3 / analyse=0x3:0x133 / me=umh / subme=11 / psy=1 / psy_rd=1.00:0.10 / mixed_ref=1 / me_range=48 / chroma_me=1 / trellis=2 / 8x8dct=1 / cqm=0 / deadzone=21,11 / fast_pskip=0 / chroma_qp_offset=-3 / threads=12 / lookahead_threads=3 / sliced_threads=0 / nr=0 / decimate=0 / interlaced=0 / bluray_compat=0 / constrained_intra=0 / bframes=15 / b_pyramid=2 / b_adapt=2 / b_bias=0 / direct=3 / weightb=1 / open_gop=0 / weightp=2 / keyint=240 / keyint_min=23 / scenecut=40 / intra_refresh=0 / rc_lookahead=60 / rc=2pass / mbtree=0 / bitrate=1916 / ratetol=1.0 / qcomp=0.70 / qpmin=0 / qpmax=69 / qpstep=4 / cplxblur=20.0 / qblur=0.5 / vbv_maxrate=50000 / vbv_bufsize=62500 / nal_hrd=none / filler=0 / ip_ratio=1.40 / pb_ratio=1.30 / aq=3:0.90
Default : Да
Forced : Нет

Аудио
Идентификатор : 2
Формат : AC-3
Формат/Информация : Audio Coding 3
Расширение режима : CM (complete main)
Параметр Endianness формата : Big
Идентификатор кодека : A_AC3
Продолжительность : 1 ч. 28 м.
Вид битрейта : Постоянный
Битрейт : 448 Кбит/сек
Каналы : 6 каналов
Расположение каналов : Front: L C R, Side: L R, LFE
Частота : 48,0 КГц
Частота кадров : 31,250 кадров/сек (1536 spf)
Метод сжатия : С потерями
Размер потока : 283 Мбайт (19%)
Язык : Russian
Default : Да
Forced : Нет

Текст
Идентификатор : 3
Формат : UTF-8
Идентификатор кодека : S_TEXT/UTF8
Идентификатор кодека/Информация : UTF-8 Plain Text
Продолжительность : 1 ч. 26 м.
Битрейт : 93 бит/сек
Count of elements : 955
Размер потока : 59,3 Кбайт (0%)
Язык : Russian
Default : Нет
Forced : Нет

Меню
00:00:00.000 : en:Chapter 1
00:07:08.970 : en:Chapter 2
00:11:41.367 : en:Chapter 3
00:17:26.503 : en:Chapter 4
00:25:28.485 : en:Chapter 5
00:29:42.989 : en:Chapter 6
00:38:21.048 : en:Chapter 7
00:46:14.938 : en:Chapter 8
00:56:05.695 : en:Chapter 9
01:04:01.629 : en:Chapter 10
01:11:52.850 : en:Chapter 11
01:21:57.787 : en:Chapter 12
01:26:32.729 : en:Chapter 13
piratbit.pw



Скачать Марко Поло через торрент http://i72.fastpic.ru/big/2015/0531/46/68ef8a2783b58e5344cc30bbd3f1b046.png Скачать фильм Марко Поло через торрент бесплантно в хорошем качестве Описание:13 век. Венецианский торговец Марко Поло сопровождает двух священников в путешествии на Восток ко двору Кублай Хана, монгольского ... 10 10 8
Info! Золотая раздача, скачанное не засчитывается.
Торрент: Зарегистрирован [2016-05-06 12:29] · скачан: 104 раз
Статус: √ проверено
Размер: 2.92 GB
Как cкачать? Как скачать Марко Поло через торрент | UTorrent

% Раздел Тема Автор DL S | L
Зарубежные сериалы [ 57.39 GB ] Марко Поло / Marco Polo / Сезон: 2 / Серии: 0-10 из 10 [2016 история WEBRip 1080p] 4x[MVO] killermax2013 Скачать
1 | 0
Зарубежные сериалы [ 106.82 GB ] Марко Поло / Marco Polo / Сезон: 1 / Серии: 1-10 из 10 [2014 история BDRemux 1080p] 3x[MVO] killermax2013 Скачать
1 | 0
Фильмы с авторской озвучкой [ 1.45 GB ] Марко Поло: Невероятные / The Incredible Adventures of Marco Polo [1998 DVDRip-AVC] [AVO] killermax2013 Скачать
1 | 0
Зарубежные сериалы [ 8.74 GB ] Люк Кейдж / Luke Cage / Сезон: 2 / Серии 1-13 из 13 [2018 WEBRip] MVO [BaibaKo] GEKADOL Скачать
1 | 0
Зарубежные сериалы [ 12.79 GB ] Люк Кейдж / Luke Cage / Сезон 1 / Серии 1-13 из 13 [2016 WEBRip-AVC] MVO [BaibaKo] GEKADOL Скачать
1 | 0
Зарубежные сериалы [ 341 MB ] Марко Поло: Сотня глаз / Marco Polo: One Hundred Eyes / Сезон: 2 / Серия 00 [2015 WEBRip] [MVO] killermax2013 Скачать
1 | 0
Зарубежные сериалы [ 378 MB ] Марко Поло / Marco Polo / Сезон: 2 / Серия 00 [2015 история WEBRip] MVO [BaibaKo] GEKADOL Скачать
1 | 0

28-11-2019 20:33  

Отключить всю рекламу на сайте

    Дорогой пользователь! Огромная просьба, поблагодарите релизера, оцените раздачу и оставьте свои комментарий, если Вы скачали Марко Поло через торрент бесплатно! Внесите свою лепту в развитие PiratBit!
    Комментировать посты могут только пользователи прошедшие не сложную регистрацию
    Показать сообщения:    

    Марко Поло через торрент
    Скачать бесплатно Марко Поло
    Марко Поло скачать торрент
    Марко Поло смотреть онлайн
    Cкачать фильм Марко Поло бесплатно
    Марко Поло скачать торрент в хорошем качестве
    Марко Поло смотреть онлайн бесплатно в хорошем качестве


    Вы не можете начинать темы
    Вы не можете отвечать на сообщения
    Вы не можете редактировать свои сообщения
    Вы не можете удалять свои сообщения
    Вы не можете голосовать в опросах
    Вы не можете прикреплять файлы к сообщениям
    Вы можете скачивать файлы