1 сезон

1 сезон

iTunes

1

КиноПоиск HD

Кинопоиск HD

iTunes

13

1 сезон

RePack

30

Новинка

ВАЖНО

ИГРА 18+

pack

RePack

MK11
pack

Легкие деньги

RePack

jed

RePack

fifa19

RePack

RDR2

RePack

NEED FOR SPEED™ PAYBACK

4 сезон

9 сезон

Бесстыжие 9 сезон

Все сериалы

все сериалы на PB.wtf

RePack

FAR CRY 5
  
Magnet ссылка

Медленные изменения удовольствия / Glissements progressifs du plaisir (Ален Роб-Грийе) [1974, ужасы, фэнтези, триллер, BDRip 1080p by msltel] AVO piratbit.pw

Медленные изменения удовольствия через торрент piratbit.pw

Размер: 11.92 GB | Добавлен: 4 года 11 мес. назад | Торрент скачан:26 раз
Скачать  

30-04-2016 12:14 Медленные изменения удовольствия Скачать торрент  

Название: Медленные изменения удовольствия
Оригинальное название: Glissements progressifs du plaisir
Год выпуска: 1974
Страна: Франция
Жанр: ужасы, фэнтези, триллер
Продолжительность: 01:46:32
Перевод: авторский

Режиссёр: Ален Роб-Грийе

В ролях: Анисе Алвина, Ольга Жорж-Пико, Микаэль Лонсдаль, Жан Мартен, Жан-Луи Трентиньян

Описание: Молодую женщину подозревают в колдовстве. Её допрашивает полиция и судьи. Её сожительницу нашли привязанной к перилам кровати, а сердце жертвы было проткнуто ножницами. Обвиняемую в убийстве партнёрши заключают в монастырской тюрьме. Очевидно, она имеет чрезвычайные способности — окружение становится жертвами её чар, постепенно сползая в пропасть желаний, похоти и неизвестности. Погружение в глубины сюрреалистического, сумасшедшего внутреннего мира, где сексуальные и садистские желания, разрушает связь с реальностью...



Качество: BDRip 1080p Сравнение с исходником
Формат: MKV
Видео: MPEG-4 AVC, 15 Mбит/с, 1800x1080, 23,976 кадра/с
Аудио 1: русский, DTS, 510 kbps, 2 ch, 48 kHz [авторский, Владимир Штейн]
Аудио 2: французский, DTS, 510 kbps, 2 ch, 48 kHz [оригинал]
Субтитры: английские
Общее
Уникальный идентификатор : 189221057735455657596977796254790667264 (0x8E5AA66E45EA06CBB9499066E9F14C00)
Полное имя : D:\Video\Медленные изменения удовольствия.1974.BDRip.1080p.mkv
Формат : Matroska
Версия формата : Version 4 / Version 2
Размер файла : 11,9 Гбайт
Продолжительность : 1 ч. 46 м.
Общий поток : 16,0 Мбит/сек
Дата кодирования : UTC 2016-04-30 02:23:01
Программа кодирования : mkvmerge v8.2.0 ('World of Adventure') 64bit
Библиотека кодирования : libebml v1.3.1 + libmatroska v1.4.2

Видео
Идентификатор : 1
Формат : AVC
Формат/Информация : Advanced Video Codec
Профиль формата : High@L4.1
Параметр CABAC формата : Да
Параметр ReFrames формата : 4 кадра
Идентификатор кодека : V_MPEG4/ISO/AVC
Продолжительность : 1 ч. 46 м.
Битрейт : 15,0 Мбит/сек
Ширина : 1800 пикселей
Высота : 1080 пикселей
Соотношение сторон : 5:3
Режим частоты кадров : Постоянный
Частота кадров : 23,976 (24000/1001) кадра/сек
Цветовое пространство : YUV
Субдискретизация насыщенности : 4:2:0
Битовая глубина : 8 бит
Тип развёртки : Прогрессивная
Бит/(Пиксели*Кадры) : 0.322
Размер потока : 11,2 Гбайт (94%)
Библиотека кодирования : x264 core 146 r2538 121396c
Настройки программы : cabac=1 / ref=4 / deblock=1:-3:-3 / analyse=0x3:0x113 / me=umh / subme=10 / psy=1 / psy_rd=1.00:0.15 / mixed_ref=1 / me_range=32 / chroma_me=1 / trellis=2 / 8x8dct=1 / cqm=0 / deadzone=21,11 / fast_pskip=1 / chroma_qp_offset=-3 / threads=6 / lookahead_threads=1 / sliced_threads=0 / nr=0 / decimate=1 / interlaced=0 / bluray_compat=0 / constrained_intra=0 / bframes=14 / b_pyramid=2 / b_adapt=2 / b_bias=0 / direct=1 / weightb=1 / open_gop=0 / weightp=2 / keyint=230 / keyint_min=23 / scenecut=40 / intra_refresh=0 / rc_lookahead=40 / rc=crf / mbtree=0 / crf=21.2 / qcomp=0.60 / qpmin=0 / qpmax=69 / qpstep=4 / vbv_maxrate=40000 / vbv_bufsize=50000 / crf_max=0.0 / nal_hrd=none / filler=0 / ip_ratio=1.40 / pb_ratio=1.30 / aq=1:1.00
Язык : French
Default : Да
Forced : Нет

Аудио #1
Идентификатор : 2
Формат : DTS
Формат/Информация : Digital Theater Systems
Режим : 16
Параметр Endianness формата : Big
Идентификатор кодека : A_DTS
Продолжительность : 1 ч. 46 м.
Вид битрейта : Постоянный
Битрейт : 510 Кбит/сек
Каналы : 2 канала
Расположение каналов : Front: L R
Частота : 48,0 КГц
Частота кадров : 93,750 кадра/сек (512 spf)
Битовая глубина : 24 бит
Метод сжатия : С потерями
Размер потока : 389 Мбайт (3%)
Заголовок : AVO (Владимир Штейн)
Язык : Russian
Default : Да
Forced : Нет

Аудио #2
Идентификатор : 3
Формат : DTS
Формат/Информация : Digital Theater Systems
Режим : 16
Параметр Endianness формата : Big
Идентификатор кодека : A_DTS
Продолжительность : 1 ч. 46 м.
Вид битрейта : Постоянный
Битрейт : 510 Кбит/сек
Каналы : 2 канала
Расположение каналов : Front: L R
Частота : 48,0 КГц
Частота кадров : 93,750 кадра/сек (512 spf)
Битовая глубина : 24 бит
Метод сжатия : С потерями
Размер потока : 389 Мбайт (3%)
Заголовок : Original
Язык : French
Default : Нет
Forced : Нет

Текст
Идентификатор : 4
Формат : UTF-8
Идентификатор кодека : S_TEXT/UTF8
Идентификатор кодека/Информация : UTF-8 Plain Text
Продолжительность : 1 ч. 44 м.
Битрейт : 17 бит/сек
Count of elements : 493
Размер потока : 13,7 Кбайт (0%)
Заголовок : английский
Язык : English
Default : Нет
Forced : Нет
piratbit.pw



Скачать Медленные изменения удовольствия через торрент http://s019.radikal.ru/i618/1604/2f/be6dd7ff4dd0.jpg Скачать фильм Медленные изменения удовольствия через торрент бесплантно в хорошем качестве Описание: Молодую женщину подозревают в колдовстве. Её допрашивает полиция и судьи. Её сожительницу нашли привязанной к перилам кровати, а ... 10 10 1
Info! Золотая раздача, скачанное не засчитывается.
Торрент: Зарегистрирован [2016-04-30 12:14] · скачан: 26 раз
Статус: √ проверено
Размер: 11.92 GB
Как cкачать? Как скачать Медленные изменения удовольствия через торрент | UTorrent

% Раздел Тема Автор DL S | L
Фильмы с авторской озвучкой [ 4.42 GB ] Медленные изменения удовольствия / Glissements progressifs du plaisir [1974 BDRip 720p by msltel] AVO msltel Скачать
1 | 0

28-11-2019 20:33  

Отключить всю рекламу на сайте

    Дорогой пользователь! Огромная просьба, поблагодарите релизера, оцените раздачу и оставьте свои комментарий, если Вы скачали Медленные изменения удовольствия через торрент бесплатно! Внесите свою лепту в развитие PiratBit!
    Комментировать посты могут только пользователи прошедшие не сложную регистрацию
    Показать сообщения:    

    Медленные изменения удовольствия через торрент
    Скачать бесплатно Медленные изменения удовольствия
    Медленные изменения удовольствия скачать торрент
    Медленные изменения удовольствия смотреть онлайн
    Cкачать фильм Медленные изменения удовольствия бесплатно
    Медленные изменения удовольствия скачать торрент в хорошем качестве
    Медленные изменения удовольствия смотреть онлайн бесплатно в хорошем качестве


    Вы не можете начинать темы
    Вы не можете отвечать на сообщения
    Вы не можете редактировать свои сообщения
    Вы не можете удалять свои сообщения
    Вы не можете голосовать в опросах
    Вы не можете прикреплять файлы к сообщениям
    Вы можете скачивать файлы