Marvel's Avengers Deluxe Edition (супер цена) 159р. Внимание количество ограничено!!!

2 сезон

iTunes

iTunes

1

iTunes

iTunes

iTunes

WEBRip

iTunes

30
pack

Новость дня

ВАЖНО

!!Акция!!

Alien_RageХит недели

RePack

Horizon Zero Dawn

ИГРА 18+

pack

RePack

jed

!!Акция!!

Alien_Rage

RePack

fifa19

RePack

Assassins Creed: Odyssey

RePack

NEED FOR SPEED™ PAYBACK

4 сезон

9 сезон

Бесстыжие 9 сезон

Все сериалы

все сериалы на PB.wtf

RePack

FAR CRY 5
  

Коробка (Эдуард Бордуков) [2016 г., драма, спорт, комедия, WEB-DL 720p] [iTunes] piratbit.pw

Коробка через торрент piratbit.pw

Размер: 2.9 GB | Добавлен: 4 года 4 мес. назад | Торрент скачан:585 раз
Скачать  

29-04-2016 09:09 Коробка Скачать торрент  

«Твой двор. Твои правила»
Год выпуска » 2016
Страна » Россия
Жанр » драма, спорт, комедия
Продолжительность » 01:36:09
Перевод » Оригинал • iTunes
Субтитры » Отсутствуют

В ролях
» Сергей Романович, Сергей Подольный, Кирилл Дегтярь, Георгий Соскин, Степан Тавризян, Сослан Засеев, Руслан Нигматулин, Ульви Вердиев, Стася Милославская, Евгения Дмитриева


Режиссёр
» Эдуард Бордуков

» «Костя, Серж, Мел и Танцор - лучшие друзья. Они молоды и увлечены уличным футболом. Самый крутой из них Костя. Его девушка Настя считает, что он должен попробовать себя в профессиональной футбольной команде, но для Кости уличный футбол - это его жизнь, а футбольная коробка - второй дом, где играют только друзья, только свои. Однажды команда Кости сталкивается на коробке с чужой компанией во главе с Дамиром, профессиональным футболистом. Не желая делить коробку, они устраивают жесткий бескомпромиссный турнир, в который постепенно втягиваются все жители района. Ставки растут, и на кону уже не только коробка. На кону дружба и любовь. И пути назад нет. Теперь это не просто игра, это война!»

• Качество » WEB-DL 720p
• Формат » mkv
• Видео кодек » AVC
• Аудио кодек » AC3
• Видео » 1280x720@960x720, 25.000 fps, 3846 Кбит/с
• Аудио » Русский (AC-3/ 6 ch / 384 kbps / 48,0 КГц / 16 bit )



Бюджет: $1 500 000
Сборы в России:$148 978
Дата российской премьеры: 7 апреля 2016, «25th Floor Film
Общее
Уникальный идентификатор : 222964176834543143538538935698965895427 (0xA7BD56A5E9B2FB02825B7B47202B9903)
Полное имя : D:\K0P06K4.2016.O.WEB-DL.720p.mkv
Формат : Matroska
Версия формата : Version 4 / Version 2
Размер файла : 2,90 Гбайт
Продолжительность : 1 ч. 36 м.
Общий поток : 4316 Кбит/сек
Дата кодирования : UTC 2016-04-28 22:02:27
Программа кодирования : mkvmerge v8.3.0 ('Over the Horizon') 64bit
Библиотека кодирования : libebml v1.3.1 + libmatroska v1.4.2
DURATION : 01:36:09.952000000
NUMBER_OF_FRAMES : 180311
NUMBER_OF_BYTES : 276957696
_STATISTICS_WRITING_APP : mkvmerge v8.3.0 ('Over the Horizon') 64bit
_STATISTICS_WRITING_DATE_UTC : 2016-04-28 22:02:27
_STATISTICS_TAGS : BPS DURATION NUMBER_OF_FRAMES NUMBER_OF_BYTES

Видео
Идентификатор : 1
Формат : AVC
Формат/Информация : Advanced Video Codec
Профиль формата : Main@L3.1
Параметр CABAC формата : Нет
Параметр ReFrames формата : 2 кадра
Идентификатор кодека : V_MPEG4/ISO/AVC
Продолжительность : 1 ч. 36 м.
Битрейт : 3846 Кбит/сек
Ширина : 960 пикселей
Высота : 720 пикселей
Соотношение сторон : 16:9
Режим частоты кадров : Постоянный
Частота кадров : 25,000 кадров/сек
Цветовое пространство : YUV
Субдискретизация насыщенности : 4:2:0
Битовая глубина : 8 бит
Тип развёртки : Прогрессивная
Бит/(Пиксели*Кадры) : 0.223
Размер потока : 2,58 Гбайт (89%)
Язык : English
Default : Да
Forced : Нет
Основные цвета : BT.709
Характеристики трансфера : BT.709
Коэффициенты матрицы : BT.709

Аудио
Идентификатор : 2
Формат : AC-3
Формат/Информация : Audio Coding 3
Расширение режима : CM (complete main)
Параметр Endianness формата : Big
Идентификатор кодека : A_AC3
Продолжительность : 1 ч. 36 м.
Вид битрейта : Постоянный
Битрейт : 384 Кбит/сек
Каналы : 6 каналов
Расположение каналов : Front: L C R, Side: L R, LFE
Частота : 48,0 КГц
Битовая глубина : 16 бит
Метод сжатия : С потерями
Размер потока : 264 Мбайт (9%)
Язык : Russian
Default : Да
Forced : Нет

Меню
00:00:00.000 : en:Глава 1
00:06:07.840 : en:Глава 2
00:11:58.520 : en:Глава 3
00:17:39.400 : en:Глава 4
00:23:36.160 : en:Глава 5
00:29:22.680 : en:Глава 6
00:34:44.080 : en:Глава 7
00:40:24.840 : en:Глава 8
00:45:47.160 : en:Глава 9
00:51:21.680 : en:Глава 10
00:57:08.520 : en:Глава 11
01:03:54.120 : en:Глава 12
01:09:03.720 : en:Глава 13
01:14:08.200 : en:Глава 14
01:19:34.400 : en:Глава 15
01:24:53.840 : en:Глава 16
01:32:22.840 : en:Глава 17
[/code]
скриншот   скриншот   скриншот  
piratbit.pw



Скачать Коробка через торрент http://pic1.kartinco.top/images/10/6lhvp.jpg Скачать фильм Коробка через торрент бесплантно в хорошем качестве В ролях » Сергей Романович, Сергей Подольный, Кирилл Дегтярь, Георгий Соскин, Степан Тавризян, Сослан Засеев, Руслан Нигматулин, Ульви ... 8.2 10 16
Info! Золотая раздача, скачанное не засчитывается.
Торрент: Зарегистрирован [2016-04-29 09:09] · скачан: 585 раз
Статус: √ проверено
Размер: 2.9 GB
Как cкачать? Как скачать Коробка через торрент | qTorrent

% Раздел Тема Автор DL S | L
Порно фильмы с сюжетом [ 1.47 GB ] Белая Коробка 10 / The White Boxxx Vol. 10 [2020 All Sex Couples WEB-DL] bashai5 Скачать
4 | 0
T Фильмы (мультфильмы) cо спонсором показа (Новинки AVI/MKV) [ 3.41 GB ] Коробка передач / PRND [2017 WEB-DL 720p] MVO ["Синема УС"] bober100 Скачать
1 | 0
T Фильмы (мультфильмы) cо спонсором показа (Новинки AVI/MKV) [ 1.37 GB ] Коробка передач / PRND [2017 WEB-DLRip] MVO ["Синема УС"] bober100 Скачать
1 | 0
# Фильмы (мультфильмы) cо спонсором показа (Новинки AVI/MKV) [ 4.56 GB ] Человек с волшебной коробкой / Czlowiek z magicznym pudelkiem / The Man with the Magic Box [2017 BDRip 720p] MVO ["Синема УС"] bober100 Скачать
1 | 0
T Фильмы (мультфильмы) cо спонсором показа (Новинки AVI/MKV) [ 1.46 GB ] Человек с волшебной коробкой / Czlowiek z magicznym pudelkiem / The Man with the Magic Box [2017 HDRip] MVO ["Синема УС"] bober100 Скачать
1 | 0
Наши новые фильмы 2016 [ 746 MB ] Коробка [2016 Россия WEB-DLRip-AVC от sokol_ok] sokol_ok Скачать
2 | 0
Ужасы, Мистика [ 1 GB ] Джо Хилл - Коробка в форме сердца [Михаил Прокопов 2017 192 kbps MP3] bober100 Скачать
1 | 0

28-11-2019 20:33  

Отключить всю рекламу на сайте

29-04-2016 09:43 Коробка Скачать торрент  

довольно таки высокие оценки на кинопоискеpiratbit.pw



29-04-2016 10:10 Коробка Скачать торрент  

Alex_E писал(а):

довольно таки высокие оценки на кинопоиске

кинопоиск давно продался яндексу,отсюда и оценки,имхо смотрел в кино,ибо бесплатно сходил)) фильм феерический бред

Бюджет: $1 500 000
Сборы в России:$148 978piratbit.pw



01-05-2016 20:07 Коробка Скачать торрент  

Mans писал(а):

Alex_E писал(а):

довольно таки высокие оценки на кинопоиске

кинопоиск давно продался яндексу,отсюда и оценки,имхо смотрел в кино,ибо бесплатно сходил)) фильм феерический бред

Бюджет: $1 500 000
Сборы в России:$148 978

зря ты так, отличный фильм!!!piratbit.pw



07-11-2016 17:55 Коробка Скачать торрент  

очень хороший фильм!piratbit.pw



    Дорогой пользователь! Огромная просьба, поблагодарите релизера, оцените раздачу и оставьте свои комментарий, если Вы скачали Коробка через торрент бесплатно! Внесите свою лепту в развитие PiratBit!
    Комментировать посты могут только пользователи прошедшие не сложную регистрацию
    Показать сообщения:    

    Коробка через торрент
    Скачать бесплатно Коробка
    Коробка скачать торрент
    Коробка смотреть онлайн
    Cкачать фильм Коробка бесплатно
    Коробка скачать торрент в хорошем качестве
    Коробка смотреть онлайн бесплатно в хорошем качестве


    Вы не можете начинать темы
    Вы не можете отвечать на сообщения
    Вы не можете редактировать свои сообщения
    Вы не можете удалять свои сообщения
    Вы не можете голосовать в опросах
    Вы не можете прикреплять файлы к сообщениям
    Вы можете скачивать файлы