Marvel's Avengers Deluxe Edition (супер цена) 159р. Внимание количество ограничено!!!

2 сезон

iTunes

iTunes

1

iTunes

iTunes

iTunes

WEBRip

iTunes

30
pack

Новость дня

ВАЖНО

!!Акция!!

Alien_RageХит недели

RePack

Horizon Zero Dawn

ИГРА 18+

pack

RePack

jed

!!Акция!!

Alien_Rage

RePack

fifa19

RePack

Assassins Creed: Odyssey

RePack

NEED FOR SPEED™ PAYBACK

4 сезон

9 сезон

Бесстыжие 9 сезон

Все сериалы

все сериалы на PB.wtf

RePack

FAR CRY 5
  

Коробка (Эдуард Бордуков) [2016 г., драма, спорт, комедия, WEB-DL 1080p, iTunes] piratbit.pw

Коробка через торрент piratbit.pw

Размер: 3.74 GB | Добавлен: 4 года 4 мес. назад | Торрент скачан:1077 раз
Скачать  

29-04-2016 01:55 Коробка Скачать торрент  


Коробка Год выпуска: 2016
Страна: Россия
Жанр: драма, спорт, комедия
Продолжительность: 96 мин. / 01:36
Перевод: Оригинальный [iTunes]
Режиссер: Эдуард Бордуков
Продюссер: Елена Гликман, Михаил Дегтярь, Ярослав Живов
Сценарий: Эдуард Бордуков

В ролях: Сергей Романович, Сергей Подольный, Кирилл Дегтярь, Георгий Соскин, Степан Тавризян, Сослан Засеев, Руслан Нигматулин, Ульви Вердиев, Стася Милославская, Евгения Дмитриева

Описание: «Костя, Серж, Мел и Танцор — лучшие друзья. Они молоды и увлечены уличным футболом. Самый крутой из них Костя. Его девушка Настя считает, что он должен попробовать себя в профессиональной футбольной команде, но для Кости уличный футбол — это его жизнь, а футбольная коробка — второй дом, где играют только друзья, только свои.

Качество: WEB-DL 1080p
Формат: MKV
Видео кодек: MPEG4
Аудио кодек: AC3
Видео: 5175 Кбит/сек, 1920x1080, 25,000 кадров/сек
Аудио#1: 48,0 КГц, 6 ch, 384 Кбит/с

скриншот   скриншот   скриншот   скриншот   скриншот   скриншот   скриншот  

Формат : Matroska
Версия формата : Version 4 / Version 2
Размер файла : 3,74 Гбайт
Продолжительность : 1 ч. 36 м.
Общий поток : 5561 Кбит/сек
Дата кодирования : UTC 2016-04-28 22:03:43
Программа кодирования : mkvmerge v8.3.0 ('Over the Horizon') 64bit
Библиотека кодирования : libebml v1.3.1 + libmatroska v1.4.2

Видео
Идентификатор : 1
Формат : AVC
Формат/Информация : Advanced Video Codec
Профиль формата : High@L4
Параметр CABAC формата : Да
Параметр ReFrames формата : 4 кадра
Идентификатор кодека : V_MPEG4/ISO/AVC
Продолжительность : 1 ч. 36 м.
Битрейт : 5175 Кбит/сек
Ширина : 1920 пикселей
Высота : 1080 пикселей
Соотношение сторон : 16:9
Режим частоты кадров : Постоянный
Частота кадров : 25,000 кадров/сек
Цветовое пространство : YUV
Субдискретизация насыщенности : 4:2:0
Битовая глубина : 8 бит
Тип развёртки : Прогрессивная
Бит/(Пиксели*Кадры) : 0.100
Размер потока : 3,48 Гбайт (93%)
Язык : English
Default : Да
Forced : Нет
Цветовой диапазон : Limited
Основные цвета : BT.709
Характеристики трансфера : BT.709
Коэффициенты матрицы : BT.709

Аудио
Идентификатор : 2
Формат : AC-3
Формат/Информация : Audio Coding 3
Расширение режима : CM (complete main)
Параметр Endianness формата : Big
Идентификатор кодека : A_AC3
Продолжительность : 1 ч. 36 м.
Вид битрейта : Постоянный
Битрейт : 384 Кбит/сек
Каналы : 6 каналов
Расположение каналов : Front: L C R, Side: L R, LFE
Частота : 48,0 КГц
Частота кадров : 31,250 кадров/сек (1536 spf)
Метод сжатия : С потерями
Размер потока : 264 Мбайт (7%)
Язык : Russian
Default : Да
Forced : Нет

Меню
00:00:00.000 : en:Глава 1
00:06:07.840 : en:Глава 2
00:11:58.520 : en:Глава 3
00:17:39.400 : en:Глава 4
00:23:36.160 : en:Глава 5
00:29:22.680 : en:Глава 6
00:34:44.080 : en:Глава 7
00:40:24.840 : en:Глава 8
00:45:47.160 : en:Глава 9
00:51:21.680 : en:Глава 10
00:57:08.520 : en:Глава 11
01:03:54.120 : en:Глава 12
01:09:03.720 : en:Глава 13
01:14:08.200 : en:Глава 14
01:19:34.400 : en:Глава 15
01:24:53.840 : en:Глава 16
01:32:22.840 : en:Глава 17

Коробка скачать торрент

piratbit.pw



Скачать Коробка через торрент http://pic.kartinco.top/images/11/emk67.jpg Скачать фильм Коробка через торрент бесплантно в хорошем качестве Описание: «Костя, Серж, Мел и Танцор — лучшие друзья. Они молоды и увлечены уличным футболом. Самый крутой из них Костя. Его девушка Настя ... 9.1 10 25
Info! Золотая раздача, скачанное не засчитывается.
Торрент: Зарегистрирован [2016-04-29 01:55] · скачан: 1 077 раз
Статус: √ проверено
Размер: 3.74 GB
Как cкачать? Как скачать Коробка через торрент | qTorrent

% Раздел Тема Автор DL S | L
Порно фильмы с сюжетом [ 1.47 GB ] Белая Коробка 10 / The White Boxxx Vol. 10 [2020 All Sex Couples WEB-DL] bashai5 Скачать
2 | 0
T Фильмы (мультфильмы) cо спонсором показа (Новинки AVI/MKV) [ 3.41 GB ] Коробка передач / PRND [2017 WEB-DL 720p] MVO ["Синема УС"] bober100 Скачать
1 | 0
T Фильмы (мультфильмы) cо спонсором показа (Новинки AVI/MKV) [ 1.37 GB ] Коробка передач / PRND [2017 WEB-DLRip] MVO ["Синема УС"] bober100 Скачать
1 | 0
# Фильмы (мультфильмы) cо спонсором показа (Новинки AVI/MKV) [ 4.56 GB ] Человек с волшебной коробкой / Czlowiek z magicznym pudelkiem / The Man with the Magic Box [2017 BDRip 720p] MVO ["Синема УС"] bober100 Скачать
1 | 0
T Фильмы (мультфильмы) cо спонсором показа (Новинки AVI/MKV) [ 1.46 GB ] Человек с волшебной коробкой / Czlowiek z magicznym pudelkiem / The Man with the Magic Box [2017 HDRip] MVO ["Синема УС"] bober100 Скачать
1 | 0
Наши новые фильмы 2016 [ 746 MB ] Коробка [2016 Россия WEB-DLRip-AVC от sokol_ok] sokol_ok Скачать
2 | 0
Ужасы, Мистика [ 1 GB ] Джо Хилл - Коробка в форме сердца [Михаил Прокопов 2017 192 kbps MP3] bober100 Скачать
1 | 0

28-11-2019 20:33  

Отключить всю рекламу на сайте

30-04-2016 14:52 Коробка Скачать торрент  

Мне фильм понравился yespiratbit.pw



01-05-2016 19:52 Коробка Скачать торрент  

спасибо!фильм очень хороший) piratbit.pw



02-05-2016 20:03 Коробка Скачать торрент  

Советую к просмотру! piratbit.pw



    Дорогой пользователь! Огромная просьба, поблагодарите релизера, оцените раздачу и оставьте свои комментарий, если Вы скачали Коробка через торрент бесплатно! Внесите свою лепту в развитие PiratBit!
    Комментировать посты могут только пользователи прошедшие не сложную регистрацию
    Показать сообщения:    

    Коробка через торрент
    Скачать бесплатно Коробка
    Коробка скачать торрент
    Коробка смотреть онлайн
    Cкачать фильм Коробка бесплатно
    Коробка скачать торрент в хорошем качестве
    Коробка смотреть онлайн бесплатно в хорошем качестве


    Вы не можете начинать темы
    Вы не можете отвечать на сообщения
    Вы не можете редактировать свои сообщения
    Вы не можете удалять свои сообщения
    Вы не можете голосовать в опросах
    Вы не можете прикреплять файлы к сообщениям
    Вы можете скачивать файлы