Ссылка на приватное зеркало всего за 1$. Внимание количество ограничено!!!

iTunes

1+1

iTunes

мы

MV0

1

WEB-DLRip

Джокер

Пифагор

Ведьмак / The Witcher сериал

iTunes

ПШазам

iTunes

Оно 2

iTunes

30
pack

Вам бонус

ВАЖНО

!!Акция!!

Alien_RageХит недели

RePack

Resident Evil 21

ИГРА 18+

pack

RePack

jed

!!Акция!!

Alien_Rage

RePack

fifa19

RePack

Assassins Creed: Odyssey

RePack

NEED FOR SPEED™ PAYBACK

4 сезон

9 сезон

Бесстыжие 9 сезон

Все сериалы

все сериалы на PB.wtf

RePack

FAR CRY 5
  

Пятьдесят оттенков черного / Fifty Shades of Black (Майкл Тиддес) [2016, комедия, BDRip-AVC, Дубляж] iTunes R.G.Resident piratbit.pw

Пятьдесят оттенков черного через торрент piratbit.pw

Качают: 1 [ 0 KB/s ]
Размер: 1.76 GB | Добавлен: 3 года 10 мес. назад | Торрент скачан:97 раз
Скачать  

24-04-2016 11:11 Пятьдесят оттенков черного Скачать торрент  

Пятьдесят оттенков черного / Fifty Shades of Black
««Если ты вляпался в черное, никогда не отмоешься до серого»»

Год выпуска: 2016
Страна: США
Жанр: комедия
Продолжительность: 01:31:58
Перевод: Дубляж - [Лицензия / iTunes]
Субтитры: английские(full), английские(SDH)
Режиссер: Майкл Тиддес
В ролях:

Марлон Уайанс (Christian), Кали Хоук (Hannah), Фред Уиллард (Gary), Майк Эппс (Ron), Эффион Крокетт (Eli), Джейн Сеймур (Claire), Флоренс Хендерсон (Mrs. Robinson), Эндрю Бэчелор (Jesse), Дженни Зигрино (Kateesha), Кейт Лэнг Джонсон (Ashley), Сидни Кастилло (Sydney), Ирен Чои (Mai)
Описание:
Неискушенная студентка колледжа знакомится с состоятельным бизнесменом, чьи сексуальные предпочтения омрачают их отношения.
Мировая премьера: 28 января 2016

MPAA: R - Лицам до 17 лет обязательно присутствие взрослого
Качество: BDRip-AVC Rip by schultz R.G.Resident
Формат: MKV
Видео: AVC, 1024x426 (2.40:1), 1967 kbps, 23,976 fps, 0,188 bpp
Аудио №1: русский / AC3 / 5.1 / 48 kHz / 384 kbps / 16 bit
Аудио №2: английский / AC3 / 5.1 / 48 kHz / 384 kbps / 16 bit

Код:

General
Unique ID                                : 181138538751674249810140003735209467889 (0x8846037A66A23F34B5ABC2D9EE6B5FF1)
Complete name                            : D:\download\Fifty.Shades.of.Black.2016.BDRip-AVC by schultz R.G.Resident.mkv
Format                                   : Matroska
Format version                           : Version 4 / Version 2
File size                                : 1.76 GiB
Duration                                 : 1h 31mn
Overall bit rate                         : 2 735 Kbps
Encoded date                             : UTC 2016-04-24 10:46:32
Writing application                      : mkvmerge v8.9.0 ('Father Daughter') 64bit
Writing library                          : libebml v1.3.3 + libmatroska v1.4.4
DURATION                                 : 01:24:53.106000000
NUMBER_OF_FRAMES                         : 1777
NUMBER_OF_BYTES                          : 64725
_STATISTICS_WRITING_APP                  : mkvmerge v8.9.0 ('Father Daughter') 64bit
_STATISTICS_WRITING_DATE_UTC             : 2016-04-24 10:46:32
_STATISTICS_TAGS                         : BPS DURATION NUMBER_OF_FRAMES NUMBER_OF_BYTES

Video
ID                                       : 1
Format                                   : AVC
Format/Info                              : Advanced Video Codec
Format profile                           : High@L4.1
Format settings, CABAC                   : Yes
Format settings, ReFrames                : 12 frames
Codec ID                                 : V_MPEG4/ISO/AVC
Duration                                 : 1h 31mn
Bit rate                                 : 1 967 Kbps
Width                                    : 1 024 pixels
Height                                   : 426 pixels
Display aspect ratio                     : 2.40:1
Frame rate                               : 23.976 fps
Color space                              : YUV
Chroma subsampling                       : 4:2:0
Bit depth                                : 8 bits
Scan type                                : Progressive
Bits/(Pixel*Frame)                       : 0.188
Stream size                              : 1.23 GiB (70%)
Writing library                          : x264 core 146 r2538 121396c
Encoding settings                        : cabac=1 / ref=12 / deblock=1:-3:-3 / analyse=0x3:0x113 / me=umh / subme=11 / psy=1 / psy_rd=1.00:0.00 / mixed_ref=1 / me_range=48 / chroma_me=1 / trellis=2 / 8x8dct=1 / cqm=0 / deadzone=21,11 / fast_pskip=0 / chroma_qp_offset=-2 / threads=12 / lookahead_threads=3 / sliced_threads=0 / nr=0 / decimate=1 / interlaced=0 / bluray_compat=0 / constrained_intra=0 / bframes=13 / b_pyramid=2 / b_adapt=2 / b_bias=0 / direct=3 / weightb=1 / open_gop=0 / weightp=2 / keyint=240 / keyint_min=23 / scenecut=40 / intra_refresh=0 / rc_lookahead=40 / rc=2pass / mbtree=1 / bitrate=1967 / ratetol=1.0 / qcomp=0.60 / qpmin=0 / qpmax=69 / qpstep=4 / cplxblur=20.0 / qblur=0.5 / vbv_maxrate=14000 / vbv_bufsize=14000 / nal_hrd=none / filler=0 / ip_ratio=1.40 / aq=1:1.00
Language                                 : English
Default                                  : Yes
Forced                                   : No
DURATION                                 : 01:31:58.522000000
NUMBER_OF_FRAMES                         : 132312
NUMBER_OF_BYTES                          : 1355839882
_STATISTICS_WRITING_APP                  : mkvmerge v8.9.0 ('Father Daughter') 64bit
_STATISTICS_WRITING_DATE_UTC             : 2016-04-24 10:46:32
_STATISTICS_TAGS                         : BPS DURATION NUMBER_OF_FRAMES NUMBER_OF_BYTES

Audio #1
ID                                       : 2
Format                                   : AC-3
Format/Info                              : Audio Coding 3
Mode extension                           : CM (complete main)
Codec ID                                 : A_AC3
Duration                                 : 1h 31mn
Bit rate mode                            : Constant
Bit rate                                 : 384 Kbps
Channel(s)                               : 6 channels
Channel positions                        : Front: L C R, Side: L R, LFE
Sampling rate                            : 48.0 KHz
Bit depth                                : 16 bits
Compression mode                         : Lossy
Delay relative to video                  : 9s 100ms
Stream size                              : 253 MiB (14%)
Language                                 : Russian
Default                                  : Yes
Forced                                   : No

Audio #2
ID                                       : 3
Format                                   : AC-3
Format/Info                              : Audio Coding 3
Mode extension                           : CM (complete main)
Codec ID                                 : A_AC3
Duration                                 : 1h 31mn
Bit rate mode                            : Constant
Bit rate                                 : 384 Kbps
Channel(s)                               : 6 channels
Channel positions                        : Front: L C R, Side: L R, LFE
Sampling rate                            : 48.0 KHz
Bit depth                                : 16 bits
Compression mode                         : Lossy
Stream size                              : 253 MiB (14%)
Default                                  : No
Forced                                   : No

Text #1
ID                                       : 4
Format                                   : UTF-8
Codec ID                                 : S_TEXT/UTF8
Codec ID/Info                            : UTF-8 Plain Text
Default                                  : Yes
Forced                                   : No

Text #2
ID                                       : 5
Format                                   : UTF-8
Codec ID                                 : S_TEXT/UTF8
Codec ID/Info                            : UTF-8 Plain Text
Default                                  : No
Forced                                   : No

Menu
00:00:00.000                             : en:00:00:00.000
00:03:55.110                             : en:00:03:55.110
00:09:30.695                             : en:00:09:30.695
00:14:05.678                             : en:00:14:05.678
00:16:32.074                             : en:00:16:32.074
00:21:11.270                             : en:00:21:11.270
00:24:27.383                             : en:00:24:27.383
00:26:50.275                             : en:00:26:50.275
00:32:44.713                             : en:00:32:44.713
00:37:48.683                             : en:00:37:48.683
00:43:08.377                             : en:00:43:08.377
00:49:18.914                             : en:00:49:18.914
00:52:10.711                             : en:00:52:10.711
00:56:28.885                             : en:00:56:28.885
00:59:37.491                             : en:00:59:37.491
01:04:46.257                             : en:01:04:46.257
01:07:50.275                             : en:01:07:50.275
01:13:01.043                             : en:01:13:01.043
01:20:21.775                             : en:01:20:21.775
01:25:30.584                             : en:01:25:30.584



piratbit.pw



Скачать Пятьдесят оттенков черного через торрент http://i77.fastpic.ru/big/2016/0417/a7/808a646271c761f7c7d87df3d366b3a7.png Скачать фильм Пятьдесят оттенков черного через торрент бесплантно в хорошем качестве Описание: Неискушенная студентка колледжа знакомится с состоятельным бизнесменом, чьи сексуальные предпочтения омрачают их отношения.✦ ... 8.5 10 6
Info! Золотая раздача, скачанное не засчитывается.
Торрент: Зарегистрирован [2016-04-24 11:11] · скачан: 97 раз
Статус: √ проверено
Размер: 1.76 GB
Как cкачать? Как скачать Пятьдесят оттенков черного через торрент | qTorrent

28-11-2019 20:33  

Отключить всю рекламу на сайте


24-04-2016 17:15 Пятьдесят оттенков черного Скачать торрент  

кафно полное.тупые америкосы-тупой их юморpiratbit.pw



26-04-2016 07:30 Пятьдесят оттенков черного Скачать торрент  

не смотрите, просто потеряете время. НИОДНОЙ смешной шутки ниодного забавного момента. был в восторге от дом с паранормальными явлениями, но это совсем не то пальто... к сожелениюpiratbit.pw



    Дорогой пользователь! Огромная просьба, поблагодарите релизера, оцените раздачу и оставьте свои комментарий, если Вы скачали Пятьдесят оттенков черного через торрент бесплатно! Внесите свою лепту в развитие PiratBit!
    Комментировать посты могут только пользователи прошедшие не сложную регистрацию
    Показать сообщения:    

    Пятьдесят оттенков черного через торрент
    Скачать бесплатно Пятьдесят оттенков черного
    Пятьдесят оттенков черного скачать торрент
    Пятьдесят оттенков черного смотреть онлайн
    Cкачать фильм Пятьдесят оттенков черного бесплатно
    Пятьдесят оттенков черного скачать торрент в хорошем качестве
    Пятьдесят оттенков черного смотреть онлайн бесплатно в хорошем качестве


    Вы не можете начинать темы
    Вы не можете отвечать на сообщения
    Вы не можете редактировать свои сообщения
    Вы не можете удалять свои сообщения
    Вы не можете голосовать в опросах
    Вы не можете прикреплять файлы к сообщениям
    Вы можете скачивать файлы