Ссылка на приватное зеркало всего за 1$. Внимание количество ограничено!!!

iTunes

1+1

iTunes

мы

MV0

1

WEB-DLRip

Джокер

Пифагор

Ведьмак / The Witcher сериал

iTunes

ПШазам

iTunes

Оно 2

iTunes

30
pack

Вам бонус

ВАЖНО

!!Акция!!

Alien_RageХит недели

RePack

Resident Evil 21

ИГРА 18+

pack

RePack

jed

!!Акция!!

Alien_Rage

RePack

fifa19

RePack

Assassins Creed: Odyssey

RePack

NEED FOR SPEED™ PAYBACK

4 сезон

9 сезон

Бесстыжие 9 сезон

Все сериалы

все сериалы на PB.wtf

RePack

FAR CRY 5
  

Джейн берет ружье / Jane Got a Gun (Гэвин О’Коннор) [2016, боевик, драма, вестерн, BDRip-AVC] DUB Лицензия R.G.Resident piratbit.pw

Джейн берет ружье через торрент piratbit.pw

Размер: 1.88 GB | Добавлен: 3 года 10 мес. назад | Торрент скачан:61 раз
Скачать  

22-04-2016 13:35 Джейн берет ружье Скачать торрент  

Джейн берет ружье / Jane Got a Gun
««She turned to her past to protect her family»»

Год выпуска: 2016
Страна: США
Жанр: боевик, драма, вестерн
Продолжительность: 01:37:59
Перевод: Дубляж - [Лицензия]
Субтитры: английские (Full)
Режиссер: Гэвин О’Коннор
В ролях:

Натали Портман (Jane Hammond), Джоэл Эдгертон (Dan Frost), Юэн МакГрегор (John Bishop), Ноа Эммерик (Bill Hammond), Бойд Холбрук (Vic Owen), Родриго Санторо (Fitchum), Джеймс Барнетт (Cunny Charlie), Сэм Куинн (Slow Jeremiah), Maisie McMaster (Kate), Дженни Гэбриэлль (Whore), Алекс Манетт (Buck), Piper Sheets (Mary)
Описание:
Головорезы МакКэна преследуют попытавшегося отбиться от банды Хэма. Изрешеченный пулями, он укрывается на ранчо своей красавицы-жены Джейн. Ей приходится обратиться за защитой к тому, кого она хотела бы видеть меньше всего, - к своему бывшему любовнику. Джейн нужно забыть прошлое, совладать с чувствами и стать сильной и бескомпромиссной, чтобы спасти семью от расправы банды наемников.
Мировая премьера: 1 января 2016

MPAA: R - Лицам до 17 лет обязательно присутствие взрослого
Качество: BDRip-AVC Rip by schultz R.G.Resident
Формат: MKV
Видео: AVC, 1024x426 (2.40:1), 1846 kbps, 23,976 fps, 0,177 bpp
Аудио №1: русский / AC3 / 5.1 / 48 kHz / 448 kbps / 16 bit
Аудио №2: английский / AC3 / 5.1 / 48 kHz / 448 kbps / 16 bit

Код:

General
Unique ID                                : 225468764021522293786554721984269357609 (0xA99FB4548FB0DBC49F273FBCB5A19229)
Complete name                            : D:\download\Jane.Got.a.Gun.2015.BDRip-AVC by schultz R.G.Resident.mkv
Format                                   : Matroska
Format version                           : Version 4 / Version 2
File size                                : 1.88 GiB
Duration                                 : 1h 37mn
Overall bit rate                         : 2 744 Kbps
Movie name                               :  Jane Got a Gun (2016)
Encoded date                             : UTC 2016-04-22 12:37:34
Writing application                      : mkvmerge v8.9.0 ('Father Daughter') 64bit
Writing library                          : libebml v1.3.3 + libmatroska v1.4.4
DURATION                                 : 01:30:12.162000000
NUMBER_OF_FRAMES                         : 804
NUMBER_OF_BYTES                          : 23557
_STATISTICS_WRITING_APP                  : mkvmerge v8.9.0 ('Father Daughter') 64bit
_STATISTICS_WRITING_DATE_UTC             : 2016-04-22 12:37:34
_STATISTICS_TAGS                         : BPS DURATION NUMBER_OF_FRAMES NUMBER_OF_BYTES

Video
ID                                       : 1
Format                                   : AVC
Format/Info                              : Advanced Video Codec
Format profile                           : High@L4.1
Format settings, CABAC                   : Yes
Format settings, ReFrames                : 12 frames
Codec ID                                 : V_MPEG4/ISO/AVC
Duration                                 : 1h 37mn
Bit rate                                 : 1 846 Kbps
Width                                    : 1 024 pixels
Height                                   : 426 pixels
Display aspect ratio                     : 2.40:1
Frame rate                               : 23.976 fps
Color space                              : YUV
Chroma subsampling                       : 4:2:0
Bit depth                                : 8 bits
Scan type                                : Progressive
Bits/(Pixel*Frame)                       : 0.177
Stream size                              : 1.23 GiB (65%)
Writing library                          : x264 core 146 r2538 121396c
Encoding settings                        : cabac=1 / ref=12 / deblock=1:-3:-3 / analyse=0x3:0x113 / me=umh / subme=11 / psy=1 / psy_rd=1.00:0.00 / mixed_ref=1 / me_range=48 / chroma_me=1 / trellis=2 / 8x8dct=1 / cqm=0 / deadzone=21,11 / fast_pskip=0 / chroma_qp_offset=-2 / threads=12 / lookahead_threads=3 / sliced_threads=0 / nr=0 / decimate=1 / interlaced=0 / bluray_compat=0 / constrained_intra=0 / bframes=13 / b_pyramid=2 / b_adapt=2 / b_bias=0 / direct=3 / weightb=1 / open_gop=0 / weightp=2 / keyint=240 / keyint_min=23 / scenecut=40 / intra_refresh=0 / rc_lookahead=40 / rc=2pass / mbtree=1 / bitrate=1846 / ratetol=1.0 / qcomp=0.60 / qpmin=0 / qpmax=69 / qpstep=4 / cplxblur=20.0 / qblur=0.5 / vbv_maxrate=14000 / vbv_bufsize=14000 / nal_hrd=none / filler=0 / ip_ratio=1.40 / aq=1:1.00
Language                                 : English
Default                                  : Yes
Forced                                   : No
DURATION                                 : 01:37:59.216000000
NUMBER_OF_FRAMES                         : 140960
NUMBER_OF_BYTES                          : 1356251675
_STATISTICS_WRITING_APP                  : mkvmerge v8.9.0 ('Father Daughter') 64bit
_STATISTICS_WRITING_DATE_UTC             : 2016-04-22 12:37:34
_STATISTICS_TAGS                         : BPS DURATION NUMBER_OF_FRAMES NUMBER_OF_BYTES

Audio #1
ID                                       : 2
Format                                   : AC-3
Format/Info                              : Audio Coding 3
Mode extension                           : CM (complete main)
Codec ID                                 : A_AC3
Duration                                 : 1h 37mn
Bit rate mode                            : Constant
Bit rate                                 : 448 Kbps
Channel(s)                               : 6 channels
Channel positions                        : Front: L C R, Side: L R, LFE
Sampling rate                            : 48.0 KHz
Bit depth                                : 16 bits
Compression mode                         : Lossy
Stream size                              : 314 MiB (16%)
Language                                 : Russian
Default                                  : Yes
Forced                                   : No

Audio #2
ID                                       : 3
Format                                   : AC-3
Format/Info                              : Audio Coding 3
Mode extension                           : CM (complete main)
Codec ID                                 : A_AC3
Duration                                 : 1h 37mn
Bit rate mode                            : Constant
Bit rate                                 : 448 Kbps
Channel(s)                               : 6 channels
Channel positions                        : Front: L C R, Side: L R, LFE
Sampling rate                            : 48.0 KHz
Bit depth                                : 16 bits
Compression mode                         : Lossy
Stream size                              : 314 MiB (16%)
Language                                 : English
Default                                  : No
Forced                                   : No

Text
ID                                       : 4
Format                                   : UTF-8
Codec ID                                 : S_TEXT/UTF8
Codec ID/Info                            : UTF-8 Plain Text
Title                                    : Full
Language                                 : English
Default                                  : No
Forced                                   : No

Menu
00:00:00.000                             : en:Chapter 01
00:04:08.414                             : en:Chapter 02
00:09:51.257                             : en:Chapter 03
00:15:45.903                             : en:Chapter 04
00:23:52.264                             : en:Chapter 05
00:30:41.297                             : en:Chapter 06
00:35:32.797                             : en:Chapter 07
00:41:13.679                             : en:Chapter 08
00:47:20.254                             : en:Chapter 09
00:53:17.360                             : en:Chapter 10
01:00:58.821                             : en:Chapter 11
01:09:51.729                             : en:Chapter 12
01:17:42.574                             : en:Chapter 13
01:23:30.213                             : en:Chapter 14
01:27:12.018                             : en:Chapter 15
01:31:18.806                             : en:Chapter 16



piratbit.pw



Скачать Джейн берет ружье через торрент http://i77.fastpic.ru/big/2016/0417/a7/808a646271c761f7c7d87df3d366b3a7.png Скачать фильм Джейн берет ружье через торрент бесплантно в хорошем качестве Описание: Головорезы МакКэна преследуют попытавшегося отбиться от банды Хэма. Изрешеченный пулями, он укрывается на ранчо своей ... 9.6 10 5
Info! Золотая раздача, скачанное не засчитывается.
Торрент: Зарегистрирован [2016-04-22 13:35] · скачан: 61 раз
Статус: √ проверено
Размер: 1.88 GB
Как cкачать? Как скачать Джейн берет ружье через торрент | qTorrent

% Раздел Тема Автор DL S | L
R.G. Resident & PiratVoice - Фильмы, Видео [ 1.46 GB ] Джейн берет ружье / Jane Got a Gun [2016 HDRip-AVC] DUB ] White Smoke Скачать
1 | 0

28-11-2019 20:33  

Отключить всю рекламу на сайте

    Дорогой пользователь! Огромная просьба, поблагодарите релизера, оцените раздачу и оставьте свои комментарий, если Вы скачали Джейн берет ружье через торрент бесплатно! Внесите свою лепту в развитие PiratBit!
    Комментировать посты могут только пользователи прошедшие не сложную регистрацию
    Показать сообщения:    

    Джейн берет ружье через торрент
    Скачать бесплатно Джейн берет ружье
    Джейн берет ружье скачать торрент
    Джейн берет ружье смотреть онлайн
    Cкачать фильм Джейн берет ружье бесплатно
    Джейн берет ружье скачать торрент в хорошем качестве
    Джейн берет ружье смотреть онлайн бесплатно в хорошем качестве


    Вы не можете начинать темы
    Вы не можете отвечать на сообщения
    Вы не можете редактировать свои сообщения
    Вы не можете удалять свои сообщения
    Вы не можете голосовать в опросах
    Вы не можете прикреплять файлы к сообщениям
    Вы можете скачивать файлы