Ссылка на приватное зеркало всего за 1$. Внимание количество ограничено!!!

iTunes

1+1

iTunes

мы

MV0

1

WEB-DLRip

Джокер

Пифагор

Ведьмак / The Witcher сериал

iTunes

ПШазам

iTunes

Оно 2

iTunes

30
pack

Вам бонус

ВАЖНО

!!Акция!!

Alien_RageХит недели

RePack

Resident Evil 21

ИГРА 18+

pack

RePack

jed

!!Акция!!

Alien_Rage

RePack

fifa19

RePack

Assassins Creed: Odyssey

RePack

NEED FOR SPEED™ PAYBACK

4 сезон

9 сезон

Бесстыжие 9 сезон

Все сериалы

все сериалы на PB.wtf

RePack

FAR CRY 5
  

СуперБобровы (Дмитрий Дьяченко) [2016, комедия, семейный, WEB-DLRip-AVC, Оригинал [iTunes] От R.G.Resident piratbit.pw

СуперБобровы через торрент piratbit.pw

Размер: 1.46 GB | Добавлен: 3 года 10 мес. назад | Торрент скачан:1106 раз
Скачать  

21-04-2016 14:56 СуперБобровы Скачать торрент  

СуперБобровы
««Вместе мы сила»»


Год выпуска: 2016
Страна: Россия
Жанр: комедия, семейный
Продолжительность: 01:35:12
Перевод: Оригинал [iTunes]
Режиссер: Дмитрий Дьяченко
В ролях:

Павел Деревянко (Олег), Оксана Акиньшина (Светлана Боброва), Роман Мадянов (Борис Алексеевич Бобров), Ирина Пегова (Рита Боброва), Владимир Толоконников (Павел Григорьевич Бобров), Даниил Вахрушев (Толик Бобров), Софья Мицкевич (Саша Боброва), Михаил Шамигулов (ППСник), Елизавета Кононова, Виталий Кищенко (Валера), Алексей Хардиков (владелец катера), Андрей Ребенков (заведующий моргом)
Описание:
Вместо десерта на ужин семейство Бобровых получило... метеорит. Настоящий, большой, из космоса. Благодаря ему Бобровы вдруг приобретают немыслимые сверхспособности. Дед становится бессмертным, а отец теперь может телепортироваться. Сын начинает понимать собачий язык, а его сёстры получают суперсилу, возможность летать и быть невидимой. Единственное ограничение - способности действуют только когда вся семейка в сборе.
Короче, у заурядной, среднестатистической ячейки общества появляется шанс превратиться в отряд настоящих супергероев. Вот только вместо того, чтобы спасать мир, они решают ограбить ближайший банк...
Мировая премьера: 1 апреля 2016

Качество: WEB-DLRip-AVC Rip by White Smoke

Формат: MKV
Видео: AVC, 1024x428 (2.40:1), 1815 kbps, 24 fps, 0,173 bpp
Аудио: русский / AC3 / 5.1 / 48 kHz / 384 kbps / 16 bit ||

Код:

General
Unique ID                                : 176553273720625097551818982281278321341 (0x84D2EC753B55081BAA19668D24CAF2BD)
Complete name                            : C:\SuperBobrOv1.2O16.WEB-DLRip-AVC.by.White Smoke.R.G.Resident.mkv
Format                                   : Matroska
Format version                           : Version 4 / Version 2
File size                                : 1.46 GiB
Duration                                 : 1h 35mn
Overall bit rate                         : 2 199 Kbps
Encoded date                             : UTC 2016-04-21 14:27:42
Writing application                      : mkvmerge v6.8.0 ('Theme for Great Cities') 64bit built on Mar  2 2014 21:34:26
Writing library                          : libebml v1.3.0 + libmatroska v1.4.1

Video
ID                                       : 1
Format                                   : AVC
Format/Info                              : Advanced Video Codec
Format profile                           : High@L4.1
Format settings, CABAC                   : Yes
Format settings, ReFrames                : 12 frames
Codec ID                                 : V_MPEG4/ISO/AVC
Duration                                 : 1h 35mn
Bit rate                                 : 1 815 Kbps
Width                                    : 1 024 pixels
Height                                   : 428 pixels
Display aspect ratio                     : 2.40:1
Frame rate                               : 24.000 fps
Color space                              : YUV
Chroma subsampling                       : 4:2:0
Bit depth                                : 8 bits
Scan type                                : Progressive
Bits/(Pixel*Frame)                       : 0.173
Stream size                              : 1.18 GiB (81%)
Writing library                          : x264 core 148 r2638 7599210
Encoding settings                        : cabac=1 / ref=12 / deblock=1:-3:-3 / analyse=0x3:0x113 / me=umh / subme=9 / psy=1 / psy_rd=1.00:0.00 / mixed_ref=1 / me_range=32 / chroma_me=1 / trellis=2 / 8x8dct=1 / cqm=0 / deadzone=21,11 / fast_pskip=1 / chroma_qp_offset=-2 / threads=6 / lookahead_threads=1 / sliced_threads=0 / nr=0 / decimate=1 / interlaced=0 / bluray_compat=0 / constrained_intra=0 / bframes=12 / b_pyramid=2 / b_adapt=2 / b_bias=10 / direct=1 / weightb=0 / open_gop=0 / weightp=2 / keyint=230 / keyint_min=24 / scenecut=40 / intra_refresh=0 / rc_lookahead=40 / rc=2pass / mbtree=1 / bitrate=1815 / ratetol=1.0 / qcomp=0.85 / qpmin=0 / qpmax=69 / qpstep=4 / cplxblur=20.0 / qblur=0.5 / ip_ratio=1.40 / aq=1:1.00
Language                                 : English
Default                                  : Yes
Forced                                   : No

Audio
ID                                       : 2
Format                                   : AC-3
Format/Info                              : Audio Coding 3
Mode extension                           : CM (complete main)
Codec ID                                 : A_AC3
Duration                                 : 1h 35mn
Bit rate mode                            : Constant
Bit rate                                 : 384 Kbps
Channel(s)                               : 6 channels
Channel positions                        : Front: L C R, Side: L R, LFE
Sampling rate                            : 48.0 KHz
Bit depth                                : 16 bits
Compression mode                         : Lossy
Stream size                              : 261 MiB (17%)
Language                                 : Russian
Default                                  : No
Forced                                   : No


© Оформление by White Smoke piratbit.pw



Скачать СуперБобровы через торрент http://i2.imageban.ru/out/2016/04/21/9c48a357cca3c54ae971e79a1aa98979.jpg Скачать фильм СуперБобровы через торрент бесплантно в хорошем качестве Описание: Вместо десерта на ужин семейство Бобровых получило... метеорит. Настоящий, большой, из космоса. Благодаря ему Бобровы вдруг ... 9.3 10 26
Info! Золотая раздача, скачанное не засчитывается.
Торрент: Зарегистрирован [2016-04-21 14:56] · скачан: 1 106 раз
Статус: √ проверено
Размер: 1.46 GB
Как cкачать? Как скачать СуперБобровы через торрент | qTorrent

28-11-2019 20:33  

Отключить всю рекламу на сайте

22-04-2016 07:28 СуперБобровы Скачать торрент  

Посмотрю из-за голой жопы с 6го скрина))piratbit.pw



22-04-2016 13:35 СуперБобровы Скачать торрент  

solovyov писал(а):

Посмотрю из-за голой жопы с 6го скрина))

------------------------------
Весомая причина,убедили.Есть ещё надежда,что где зад,там и перед:))piratbit.pw



23-04-2016 16:41 СуперБобровы Скачать торрент  

Посмотрел.Отличный фильм.Позитивный и весёлый.piratbit.pw



24-04-2016 19:00 СуперБобровы Скачать торрент  

Смотрел трейлер. Уже по нему видно, что фильм - утиль.
Почитал отзывы на кинопоиске и в очередной раз убедился, что отечественный кинематограф все еще в жопе.

ЗЫ. Рейтинг фильма 12+. На скрине голая жопа. Что-то тут не сходится.piratbit.pw



    Дорогой пользователь! Огромная просьба, поблагодарите релизера, оцените раздачу и оставьте свои комментарий, если Вы скачали СуперБобровы через торрент бесплатно! Внесите свою лепту в развитие PiratBit!
    Комментировать посты могут только пользователи прошедшие не сложную регистрацию
    Показать сообщения:    

    СуперБобровы через торрент
    Скачать бесплатно СуперБобровы
    СуперБобровы скачать торрент
    СуперБобровы смотреть онлайн
    Cкачать фильм СуперБобровы бесплатно
    СуперБобровы скачать торрент в хорошем качестве
    СуперБобровы смотреть онлайн бесплатно в хорошем качестве


    Вы не можете начинать темы
    Вы не можете отвечать на сообщения
    Вы не можете редактировать свои сообщения
    Вы не можете удалять свои сообщения
    Вы не можете голосовать в опросах
    Вы не можете прикреплять файлы к сообщениям
    Вы можете скачивать файлы