2 сезон

iTunes

WEBRip

1

2 сезон

iTunes

1 сезон

1 сезон

RePack

30

Новинка

ВАЖНО

ИГРА 18+

pack

RePack

MK11
pack

Легкие деньги

RePack

jed

RePack

fifa19

RePack

RDR2

RePack

NEED FOR SPEED™ PAYBACK

4 сезон

9 сезон

Бесстыжие 9 сезон

Все сериалы

все сериалы на PB.wtf

RePack

FAR CRY 5

Anonymous, доброе утро, мы не успеваем собрать деньги на оплату серверов за февраль, помогите нам пожалуйста в это трудное время. В качестве благодарности мы отключим Вам всю рекламу на сайте (укажите свой ник в строку Ваше имя)!

×
  
Magnet ссылка

Ferry Corsten - Hello World 2016 / FLAC (image + .cue) / lossless /Dance, Progressive-House, Trance piratbit.pw

Скачать  

19-04-2016 13:29 Ferry Corsten - Hello World 2016 Скачать торрент  

Ferry Corsten - Hello World
Страна: Holland
Жанр: Dance, Progressive-House, Trance
Год выпуска: 2016
Формат: FLAC (image + .cue)
Битрейт аудио:lossless
Продолжительность: 01:17:42
01. Ferry Corsten feat. Ethan Thompson - Heart's Beating Faster 3:05
02. Find A Way 4:10
03. Ferry Corsten feat. Angelika Vee - Beat As One 2:58
04. Homeward 5:34
05. Ferry Corsten feat. Haris - Back To Paradise 3:18
06. Ferry Corsten feat. Temperheart - Not Alone 4:19
07. Angel Dust 4:34
08. Ferry Corsten feat. Nat Dunn - Hyper Love (Summer 15 Radio Edit) 3:48
09. Voema 5:43
10. Tonka 4:58
11. Ferry Corsten feat. Chris Jones - Make It Ours (Flashover Mix) 5:37
12. Follow You 6:42
13. Reborn 3:44
14. Find A Way (Leon Reverse Remix) 5:45
15. Ferry Corsten feat. Angelika Vee - Beat As One (Richard Durand Reloaded Remix) 6:57
16. Ferry Corsten feat. Haris - Back To Paradise (Craig Connelly Remix) 6:29
Exact Audio Copy V1.0 beta 3 from 29. August 2011

Отчёт EAC об извлечении, выполненном 17. апреля 2016, 16:40

Ferry Corsten / Hello World

Дисковод: ASUS DRW-24F1ST a Adapter: 0 ID: 0

Режим чтения : Достоверность
Использование точного потока : Да
Отключение кэша аудио : Нет
Использование указателей C2 : Да

Коррекция смещения при чтении : 6
Способность читать области Lead-in и Lead-out : Нет
Заполнение пропущенных сэмплов тишиной : Да
Удаление блоков с тишиной в начале и конце : Нет
При вычислениях CRC использовались нулевые сэмплы : Да
Интерфейс : Встроенный Win32-интерфейс для Win NT/2000

Выходной формат : Пользовательский кодировщик
Выбранный битрейт : 768 kBit/s
Качество : Высокий
Добавление ID3-тега : Нет
Утилита сжатия : C:Program Files (x86)Exact Audio CopyFLACFLAC.EXE
Дополнительные параметры : -V -8 -T "Date=%year%" -T "Genre=%genre%" %source%

TOC извлечённого CD

Трек | Старт | Длительность | Начальный сектор | Конечный сектор
---------------------------------------------------------------------
1 | 0:00.00 | 3:05.30 | 0 | 13904
2 | 3:05.30 | 4:10.22 | 13905 | 32676
3 | 7:15.52 | 2:58.17 | 32677 | 46043
4 | 10:13.69 | 5:34.30 | 46044 | 71123
5 | 15:48.24 | 3:17.70 | 71124 | 85968
6 | 19:06.19 | 4:18.40 | 85969 | 105358
7 | 23:24.59 | 4:33.41 | 105359 | 125874
8 | 27:58.25 | 3:47.57 | 125875 | 142956
9 | 31:46.07 | 5:43.29 | 142957 | 168710
10 | 37:29.36 | 4:58.15 | 168711 | 191075
11 | 42:27.51 | 5:36.68 | 191076 | 216343
12 | 48:04.44 | 6:42.12 | 216344 | 246505
13 | 54:46.56 | 3:44.26 | 246506 | 263331
14 | 58:31.07 | 5:44.59 | 263332 | 289190
15 | 64:15.66 | 6:57.13 | 289191 | 320478
16 | 71:13.04 | 6:29.02 | 320479 | 349655

Характеристики диапазона извлечения и сообщения об ошибках

Выбранный диапазон

Имя файла C:UsersshuraviMusicFerry CorstenFerry Corsten - Hello World.wav

Пиковый уровень 100.0 %
Скорость извлечения 10.3 X
Качество диапазона 99.9 %
CRC теста 06FE69AF
CRC копии 06FE69AF
Копирование... OK

Ошибок не произошло

AccurateRip: сводка

Трек 1 отсутствует в базе данных
Трек 2 отсутствует в базе данных
Трек 3 отсутствует в базе данных
Трек 4 отсутствует в базе данных
Трек 5 отсутствует в базе данных
Трек 6 отсутствует в базе данных
Трек 7 отсутствует в базе данных
Трек 8 отсутствует в базе данных
Трек 9 отсутствует в базе данных
Трек 10 отсутствует в базе данных
Трек 11 отсутствует в базе данных
Трек 12 отсутствует в базе данных
Трек 13 отсутствует в базе данных
Трек 14 отсутствует в базе данных
Трек 15 отсутствует в базе данных
Трек 16 отсутствует в базе данных

Ни одного трека нет в базе AccurateRip

Конец отчёта
piratbit.pw



Скачать
Чтобы иметь возможность скачивать с Торрент Трекера, нужно Зарегистрироваться

Как скачивать  ·  Рейтинг и ограничения

28-11-2019 20:33  

Отключить всю рекламу на сайте

19-04-2016 13:46 Ferry Corsten - Hello World 2016 Скачать торрент  

раздел перепуталpiratbit.pw



    Дорогой пользователь! Огромная просьба, поблагодарите релизера, оцените раздачу и оставьте свои комментарий, если Вы скачали Ferry Corsten - Hello World 2016 через торрент бесплатно! Внесите свою лепту в развитие PiratBit!
    Комментировать посты могут только пользователи прошедшие не сложную регистрацию
    Показать сообщения:    

    Ferry Corsten - Hello World 2016 через торрент
    Скачать бесплатно Ferry Corsten - Hello World 2016
    Ferry Corsten - Hello World 2016 скачать торрент
    Ferry Corsten - Hello World 2016 смотреть онлайн
    Cкачать фильм Ferry Corsten - Hello World 2016 бесплатно
    Ferry Corsten - Hello World 2016 скачать торрент в хорошем качестве
    Ferry Corsten - Hello World 2016 смотреть онлайн бесплатно в хорошем качестве


    Вы не можете начинать темы
    Вы не можете отвечать на сообщения
    Вы не можете редактировать свои сообщения
    Вы не можете удалять свои сообщения
    Вы не можете голосовать в опросах
    Вы не можете прикреплять файлы к сообщениям
    Вы не можете скачивать файлы