1 сезон

1 сезон

iTunes

1

КиноПоиск HD

Кинопоиск HD

iTunes

13

1 сезон

RePack

30

Новинка

ВАЖНО

ИГРА 18+

pack

RePack

MK11
pack

Легкие деньги

RePack

jed

RePack

fifa19

RePack

RDR2

RePack

NEED FOR SPEED™ PAYBACK

4 сезон

9 сезон

Бесстыжие 9 сезон

Все сериалы

все сериалы на PB.wtf

RePack

FAR CRY 5
  
Magnet ссылка

Поймай толстуху, если сможешь / Identity Thief (Сет Гордон / Seth Gordon) [2013, комедия, криминал, BDRip-AVC от potroks] [Расширенная версия] AVO piratbit.pw

Поймай толстуху, если сможешь через торрент piratbit.pw

Размер: 2.91 GB | Добавлен: 5 лет назад | Торрент скачан:47 раз
Скачать  

08-04-2016 11:30 Поймай толстуху, если сможешь Скачать торрент  

Поймай толстуху, если сможешь / Identity Thief
«Is this the face of a thief?»
Год выпуска: 2013
Страна: США / Aggregate Films, DumbDumb, Stuber Productions
Жанр: комедия, криминал
Продолжительность: 02:00:30
Перевод: Авторский (одноголосый) [Дмитрий Есарев]
Субтитры: английские (Full), английские (SDH-Colored), английские (SDH)
Навигация по главам: есть
Режиссер: Сет Гордон / Seth Gordon
В ролях:

Джейсон Бейтман (Sandy Patterson), Мелисса МакКарти (Diana), Аманда Пит (Trish Patterson), Роберт Патрик (Skiptracer), Дженезис Родригез (Marisol), Ти-Ай (Julian), Джон Фавро (Harold Cornish), Моррис Честнат (Detective Reilly), Джон Чо (Daniel Casey), Эрик Стоунстрит (Big Chuck), Джонатан Бэнкс (Paul), Райан Гол (Bartender)
Описание: Главный герой фильма - молодой человек по имени Сэнди, являющийся добропорядочным гражданином, однажды узнает, что кто-то умудрился воспользоваться его именем и кредитной картой. Каково же было его удивление, когда злоумышленником оказалась представительница прекрасного пола. Сэнди был в полном недоумении, но решил найти эту наглую женщину и поговорить с ней. Но она совершенно не жалеет о содеянном преступлении и не станет сдаваться без боя!

Качество: BDRip-AVC
Формат: MKV
Видео кодек: AVC
Аудио кодек: AC3
Видео: AVC, 1080x460 (2.35:1), 2561 kbps, 23,976 fps, 0,215 bit/pixel
Аудио №1: AC3 / 5.1 / 48 kHz / 448 kbps / 16 bit | RUS
Аудио №2: AC3 / 5.1 / 48 kHz / 448 kbps / 16 bit | ENG

Код:

Общее
Уникальный идентификатор : 211811750922120611344295201089908600058 (0x9F5975991A190D3FA6B67663938F6CFA)
Полное имя : Poymay.Tolstuhu.Esli.Smozhesh.2013.EC.DUAL.BDRip.x264.by_potroks.mkv
Формат : Matroska
Версия формата : Version 4 / Version 2
Размер файла : 2,91 Гбайт
Продолжительность : 2 ч. 0 м.
Общий поток : 3458 Кбит/сек
Название фильма : Identity Thief (2013) [Extended]
Дата кодирования : UTC 2016-04-08 10:40:42
Программа кодирования : mkvmerge v5.9.0 ('On The Loose') built on Dec 15 2012 16:39:58
Библиотека кодирования : libebml v1.3.0 + libmatroska v1.4.0

Видео
Идентификатор : 1
Формат : AVC
Формат/Информация : Advanced Video Codec
Профиль формата : High@L4.1
Параметр CABAC формата : Да
Параметр ReFrames формата : 10 кадров
Идентификатор кодека : V_MPEG4/ISO/AVC
Продолжительность : 2 ч. 0 м.
Битрейт : 2561 Кбит/сек
Ширина : 1080 пикселей
Высота : 460 пикселей
Соотношение сторон : 2,35:1
Режим частоты кадров : Постоянный
Частота кадров : 23,976 кадра/сек
Цветовое пространство : YUV
Субдискретизация насыщенности : 4:2:0
Битовая глубина : 8 бит
Тип развёртки : Прогрессивная
Бит/(Пиксели*Кадры) : 0.215
Размер потока : 2,10 Гбайт (72%)
Заголовок : potroks
Библиотека кодирования : x264 core 125 r2208 d9d2288
Настройки программы : cabac=1 / ref=10 / deblock=1:-2:-1 / analyse=0x3:0x133 / me=umh / subme=11 / psy=1 / psy_rd=1.09:0.02 / mixed_ref=1 / me_range=32 / chroma_me=1 / trellis=2 / 8x8dct=1 / cqm=0 / deadzone=21,11 / fast_pskip=0 / chroma_qp_offset=-3 / threads=9 / lookahead_threads=1 / sliced_threads=0 / nr=0 / decimate=1 / interlaced=0 / bluray_compat=0 / constrained_intra=0 / bframes=11 / b_pyramid=2 / b_adapt=2 / b_bias=0 / direct=3 / weightb=1 / open_gop=0 / weightp=2 / keyint=240 / keyint_min=23 / scenecut=40 / intra_refresh=0 / rc_lookahead=150 / rc=2pass / mbtree=1 / bitrate=2561 / ratetol=1.0 / qcomp=0.70 / qpmin=0 / qpmax=69 / qpstep=4 / cplxblur=20.0 / qblur=0.5 / vbv_maxrate=20000 / vbv_bufsize=20000 / nal_hrd=none / ip_ratio=1.35 / aq=1:0.80
Язык : English
Default : Да
Forced : Нет

Аудио #1
Идентификатор : 2
Формат : AC-3
Формат/Информация : Audio Coding 3
Расширение режима : CM (complete main)
Параметр Endianness формата : Big
Идентификатор кодека : A_AC3
Продолжительность : 2 ч. 0 м.
Вид битрейта : Постоянный
Битрейт : 448 Кбит/сек
Каналы : 6 каналов
Расположение каналов : Front: L C R, Side: L R, LFE
Частота : 48,0 КГц
Метод сжатия : С потерями
Размер потока : 386 Мбайт (13%)
Заголовок : AVO | DD 5.1 @ 448 kbps - D.Yesarev
Язык : Russian
Default : Да
Forced : Да

Аудио #2
Идентификатор : 3
Формат : AC-3
Формат/Информация : Audio Coding 3
Расширение режима : CM (complete main)
Параметр Endianness формата : Big
Идентификатор кодека : A_AC3
Продолжительность : 2 ч. 0 м.
Вид битрейта : Постоянный
Битрейт : 448 Кбит/сек
Каналы : 6 каналов
Расположение каналов : Front: L C R, Side: L R, LFE
Частота : 48,0 КГц
Метод сжатия : С потерями
Размер потока : 386 Мбайт (13%)
Заголовок : Original | DD 5.1 @ 448 kbps
Язык : English
Default : Нет
Forced : Нет

Текст #1
Идентификатор : 4
Формат : UTF-8
Идентификатор кодека : S_TEXT/UTF8
Идентификатор кодека/Информация : UTF-8 Plain Text
Заголовок : Full
Язык : English
Default : Нет
Forced : Нет

Текст #2
Идентификатор : 5
Формат : UTF-8
Идентификатор кодека : S_TEXT/UTF8
Идентификатор кодека/Информация : UTF-8 Plain Text
Заголовок : SDH-Colored
Язык : English
Default : Нет
Forced : Нет

Текст #3
Идентификатор : 6
Формат : UTF-8
Идентификатор кодека : S_TEXT/UTF8
Идентификатор кодека/Информация : UTF-8 Plain Text
Заголовок : SDH
Язык : English
Default : Нет
Forced : Нет

Меню
00:00:00.000 : en:Chapter 1
00:06:30.973 : en:Chapter 2
00:13:20.424 : en:Chapter 3
00:17:48.400 : en:Chapter 4
00:26:24.332 : en:Chapter 5
00:30:23.613 : en:Chapter 6
00:36:55.671 : en:Chapter 7
00:44:45.015 : en:Chapter 8
00:49:15.410 : en:Chapter 9
00:56:44.526 : en:Chapter 10
01:01:19.926 : en:Chapter 11
01:07:52.568 : en:Chapter 12
01:12:19.126 : en:Chapter 13
01:16:05.185 : en:Chapter 14
01:21:31.886 : en:Chapter 15
01:28:43.901 : en:Chapter 16
01:36:07.261 : en:Chapter 17
01:43:08.348 : en:Chapter 18
01:49:59.300 : en:Chapter 19
01:56:28.481 : en:Chapter 20
02:00:30.514 : en:Chapter 21

piratbit.pw



Скачать Поймай толстуху, если сможешь через торрент http://i80.fastpic.ru/big/2016/0408/a5/dd49401cd1717d7d8297434a075bd0a5.png Скачать фильм Поймай толстуху, если сможешь через торрент бесплантно в хорошем качестве Описание: Главный герой фильма - молодой человек по имени Сэнди, являющийся добропорядочным гражданином, однажды узнает, что кто-то ... 10 10 7
Info! Золотая раздача, скачанное не засчитывается.
Торрент: Зарегистрирован [2016-04-08 11:30] · скачан: 47 раз
Статус: √ проверено
Размер: 2.91 GB
Как cкачать? Как скачать Поймай толстуху, если сможешь через торрент | UTorrent



Последний раз редактировалось: potroks (2016-04-08 11:34), всего редактировалось 1 раз

28-11-2019 20:33  

Отключить всю рекламу на сайте

    Дорогой пользователь! Огромная просьба, поблагодарите релизера, оцените раздачу и оставьте свои комментарий, если Вы скачали Поймай толстуху, если сможешь через торрент бесплатно! Внесите свою лепту в развитие PiratBit!
    Комментировать посты могут только пользователи прошедшие не сложную регистрацию
    Показать сообщения:    

    Поймай толстуху, если сможешь через торрент
    Скачать бесплатно Поймай толстуху, если сможешь
    Поймай толстуху, если сможешь скачать торрент
    Поймай толстуху, если сможешь смотреть онлайн
    Cкачать фильм Поймай толстуху, если сможешь бесплатно
    Поймай толстуху, если сможешь скачать торрент в хорошем качестве
    Поймай толстуху, если сможешь смотреть онлайн бесплатно в хорошем качестве


    Вы не можете начинать темы
    Вы не можете отвечать на сообщения
    Вы не можете редактировать свои сообщения
    Вы не можете удалять свои сообщения
    Вы не можете голосовать в опросах
    Вы не можете прикреплять файлы к сообщениям
    Вы можете скачивать файлы