1 сезон

1 сезон

iTunes

1

КиноПоиск HD

Кинопоиск HD

iTunes

13

1 сезон

RePack

30

Новинка

ВАЖНО

ИГРА 18+

pack

RePack

MK11
pack

Легкие деньги

RePack

jed

RePack

fifa19

RePack

RDR2

RePack

NEED FOR SPEED™ PAYBACK

4 сезон

9 сезон

Бесстыжие 9 сезон

Все сериалы

все сериалы на PB.wtf

RePack

FAR CRY 5
  
Magnet ссылка

Комната / Room (Леонард Абрахамсон / Lenny Abrahamson) [2015, драма, BDRip-AVC от potroks] AVO piratbit.pw

Комната через торрент piratbit.pw

Размер: 1.46 GB | Добавлен: 5 лет назад | Торрент скачан:111 раз
Скачать  

07-04-2016 16:36 Комната Скачать торрент  

Комната / Room
«Love knows no boundaries»
Год выпуска: 2015
Страна: Ирландия, Канада / A24, Element Pictures, No Trace Camping
Жанр: драма
Продолжительность: 01:57:38
Перевод: Авторский (одноголосый) [А.Матвеев / ценз.]
Субтитры: русские (полные + форс.)
Навигация по главам: есть

Режиссер: Леонард Абрахамсон / Lenny Abrahamson
В ролях:





Бри Ларсон (Ma), Джейкоб Тремблэ (Jack), Шон Бриджерс (Old Nick), Джоан Аллен (Nancy), Том МакКэмус (Leo), Уильям Х. Мэйси (Robert), Кэс Анвар (Dr. Mittal), Рендал Эдвардс (Lawyer), Аманда Бругел (Officer Parker), Джо Пинг (Officer Grabowski), Венди Крюсон (Talk Show Hostess), Сэнди МакМастер (Veteran)




Описание: Девушку по имени Ма похитили, когда она была еще подростком. С тех пор бедняга живет в крохотной комнатке вместе со своим 5-летним сыном Джеком. Мальчик при этом ничего кроме этой комнаты не видел, он в ней родился и ни разу ее не покидал.









Качество: BDRip-AVC
Формат: MKV
Видео кодек: AVC
Аудио кодек: AC3
Видео: 960x400 (2,40:1), 1329 kbps, 23,976 fps, 0.144 bit/pixel
Аудио: AC3 / 5.1 / 48 kHz / 448 kbps / 16 bit

Код:

Общее
Уникальный идентификатор : 215366131988619146336151774996039744231 (0xA206021D5A123197B29108711A3C3AE7)
Полное имя : Komnata.2015.RUS.BDRip.x264.by_potroks.mkv
Формат : Matroska
Версия формата : Version 4 / Version 2
Размер файла : 1,46 Гбайт
Продолжительность : 1 ч. 57 м.
Общий поток : 1776 Кбит/сек
Название фильма : Room (2015)
Дата кодирования : UTC 2016-04-04 11:09:46
Программа кодирования : mkvmerge v5.9.0 ('On The Loose') built on Dec 15 2012 16:39:58
Библиотека кодирования : libebml v1.3.0 + libmatroska v1.4.0

Видео
Идентификатор : 1
Формат : AVC
Формат/Информация : Advanced Video Codec
Профиль формата : High@L4.1
Параметр CABAC формата : Да
Параметр ReFrames формата : 12 кадров
Идентификатор кодека : V_MPEG4/ISO/AVC
Продолжительность : 1 ч. 57 м.
Битрейт : 1329 Кбит/сек
Ширина : 960 пикселей
Высота : 400 пикселей
Соотношение сторон : 2,40:1
Режим частоты кадров : Постоянный
Частота кадров : 23,976 кадра/сек
Цветовое пространство : YUV
Субдискретизация насыщенности : 4:2:0
Битовая глубина : 8 бит
Тип развёртки : Прогрессивная
Бит/(Пиксели*Кадры) : 0.144
Размер потока : 1,06 Гбайт (73%)
Заголовок : potroks
Библиотека кодирования : x264 core 148 r2665M a01e339
Настройки программы : cabac=1 / ref=12 / deblock=1:-2:-2 / analyse=0x3:0x133 / me=umh / subme=11 / psy=1 / psy_rd=1.00:0.50 / mixed_ref=1 / me_range=48 / chroma_me=1 / trellis=2 / 8x8dct=1 / cqm=0 / deadzone=21,11 / fast_pskip=0 / chroma_qp_offset=-4 / threads=9 / lookahead_threads=2 / sliced_threads=0 / nr=0 / decimate=1 / interlaced=0 / bluray_compat=0 / constrained_intra=0 / bframes=13 / b_pyramid=2 / b_adapt=2 / b_bias=0 / direct=3 / weightb=1 / open_gop=0 / weightp=2 / keyint=240 / keyint_min=23 / scenecut=40 / intra_refresh=0 / rc=2pass / mbtree=0 / bitrate=1329 / ratetol=1.0 / qcomp=0.70 / qpmin=0 / qpmax=69 / qpstep=4 / cplxblur=20.0 / qblur=0.5 / ip_ratio=1.40 / pb_ratio=1.30 / aq=1:0.95
Язык : English
Default : Да
Forced : Нет

Аудио
Идентификатор : 2
Формат : AC-3
Формат/Информация : Audio Coding 3
Расширение режима : CM (complete main)
Параметр Endianness формата : Big
Идентификатор кодека : A_AC3
Продолжительность : 1 ч. 57 м.
Вид битрейта : Постоянный
Битрейт : 448 Кбит/сек
Каналы : 6 каналов
Расположение каналов : Front: L C R, Side: L R, LFE
Частота : 48,0 КГц
Метод сжатия : С потерями
Размер потока : 377 Мбайт (25%)
Заголовок : AVO | DD 5.1 @ 448 kbps - A.Matveev [Censored]
Язык : Russian
Default : Да
Forced : Нет

Текст #1
Идентификатор : 3
Формат : UTF-8
Идентификатор кодека : S_TEXT/UTF8
Идентификатор кодека/Информация : UTF-8 Plain Text
Заголовок : Forced
Язык : Russian
Default : Да
Forced : Нет

Текст #2
Идентификатор : 4
Формат : UTF-8
Идентификатор кодека : S_TEXT/UTF8
Идентификатор кодека/Информация : UTF-8 Plain Text
Заголовок : Censored
Язык : Russian
Default : Нет
Forced : Нет

Текст #3
Идентификатор : 5
Формат : UTF-8
Идентификатор кодека : S_TEXT/UTF8
Идентификатор кодека/Информация : UTF-8 Plain Text
Заголовок : Uncensored
Язык : Russian
Default : Нет
Forced : Нет

Меню
00:00:00.000 : en:Chapter 01
00:07:07.427 : en:Chapter 02
00:12:23.033 : en:Chapter 03
00:24:29.759 : en:Chapter 04
00:31:11.786 : en:Chapter 05
00:37:16.859 : en:Chapter 06
00:47:27.761 : en:Chapter 07
00:52:27.018 : en:Chapter 08
00:59:46.040 : en:Chapter 09
01:09:29.582 : en:Chapter 10
01:16:51.523 : en:Chapter 11
01:23:52.861 : en:Chapter 12
01:31:30.943 : en:Chapter 13
01:37:03.150 : en:Chapter 14
01:43:28.493 : en:Chapter 15
01:48:23.955 : en:Chapter 16

piratbit.pw



Скачать Комната через торрент http://i74.fastpic.ru/big/2016/0221/01/509aed7b9fef14862e06ffa38f02bf01.png Скачать фильм Комната через торрент бесплантно в хорошем качестве Описание: Девушку по имени Ма похитили, когда она была еще подростком. С тех пор бедняга живет в крохотной комнатке вместе со своим ... 10 10 4
Info! Золотая раздача, скачанное не засчитывается.
Торрент: Зарегистрирован [2016-04-07 16:36] · скачан: 111 раз
Статус: √ проверено
Размер: 1.46 GB
Как cкачать? Как скачать Комната через торрент | UTorrent

% Раздел Тема Автор DL S | L
Фильмы [HD 720p, 1080p] (Хороший звук DUB, MVO) [ 8.74 GB ] Зелёная комната / Green Room [2015 BDRip 1080p] DUB [SDI Media] +3xAVO bober100 Скачать
1 | 0
Фильмы (Blu-ray, BD-Remux, HDDVD) [ 26.3 GB ] Зелёная комната / Green Room [2015 BD Remux 1080p] 3xAVO bober100 Скачать
1 | 0
Фильмы с авторской озвучкой [ 16.84 GB ] Комната / Room AVO MVO кэп Скачать
1 | 0
Фильмы с авторской озвучкой [ 1.65 GB ] Комната страха / Panic Room [2002 DVDRip] [AVO] killermax2013 Скачать
1 | 0
Фильмы с авторской озвучкой [ 4.37 GB ] Комната / Room [2015 BDRip 720p] AVO potroks Скачать
1 | 0
Фильмы [HD 720p, 1080p] (Хороший звук DUB, MVO) [ 12 GB ] Четыре комнаты / Four Rooms [1995 BDRip 1080p] DVO 3 x AVO msltel Скачать
1 | 0
Фильмы [HD 720p, 1080p] (Хороший звук DUB, MVO) [ 4.63 GB ] Четыре комнаты / Four Rooms [1995 BDRip 720p] DVO 3 x AVO msltel Скачать
2 | 0

28-11-2019 20:33  

Отключить всю рекламу на сайте

    Дорогой пользователь! Огромная просьба, поблагодарите релизера, оцените раздачу и оставьте свои комментарий, если Вы скачали Комната через торрент бесплатно! Внесите свою лепту в развитие PiratBit!
    Комментировать посты могут только пользователи прошедшие не сложную регистрацию
    Показать сообщения:    

    Комната через торрент
    Скачать бесплатно Комната
    Комната скачать торрент
    Комната смотреть онлайн
    Cкачать фильм Комната бесплатно
    Комната скачать торрент в хорошем качестве
    Комната смотреть онлайн бесплатно в хорошем качестве


    Вы не можете начинать темы
    Вы не можете отвечать на сообщения
    Вы не можете редактировать свои сообщения
    Вы не можете удалять свои сообщения
    Вы не можете голосовать в опросах
    Вы не можете прикреплять файлы к сообщениям
    Вы можете скачивать файлы