Ссылка на приватное зеркало нашего сайта всего за 1$. Внимание количество ограничено!!!

2 сезон

iTunes

1 сезон

1

2 сезон

2 сезон

iTunes

1 сезон

RePack

30

Ultimate

ВАЖНО

ИГРА 18+

pack

RePack

MK11
pack

Забери бонус

RePack

jed

!!Акция!!

Alien_Rage

RePack

fifa19

RePack

Assassins Creed: Odyssey

RePack

NEED FOR SPEED™ PAYBACK

4 сезон

9 сезон

Бесстыжие 9 сезон

Все сериалы

все сериалы на PB.wtf

RePack

FAR CRY 5
  

Сборник мультфильмов (Михаил Цехановский, Фёдор Хитрук, Борис Дежкин...) [1954-1991, СССР, мультфильм, короткометражка, DVDRip от AVP Studio] piratbit.pw

Сборник мультфильмов через торрент piratbit.pw

Размер: 1.46 GB | Добавлен: 4 года 7 мес. назад | Торрент скачан:53 раза
Скачать  

06-04-2016 14:11 Сборник мультфильмов Скачать торрент  

Сборник мультфильмов
Страна: СССР
Производство: Союзмультфильм

Жанр: мультфильм, короткометражка
Год выпуска: 1954-1991
Продолжительность: 01:41:20

Перевод: Не требуется
Cубтитры: нет
Оригинальная аудиодорожка: русский

Режиссер: Михаил Цехановский, Фёдор Хитрук, Борис Дежкин...

Описание: «Союзмультфильм» — крупнейшая в СССР студия мультипликационных фильмов, основанная в Москве 10 июня 1936 года. Студия создана 10 июня 1936 года с названием — «Союздетмультфильм» (из объединения мелких коллективов Мосфильма, Совкино и Межрабпромфильма), а с 20 августа 1937 года ее переименовали в «Союзмультфильм». Хотя приказ о создании студии был подписан начальником Главного Управления кинофотопромышленности, считается, что решение о создании студии мультипликационных фильмов исходило лично от И. В. Сталина. Для студии были выделены помещения закрытых Советской властью храмов: Николая Чудотворца в Новой слободе на Долгоруковской улице (в советское время — Каляевской улице), где находилось производство рисованных фильмов, и Спаса Преображения «что на Песках» в Спасопесковском переулке на Арбате, где располагалось «Творческое объединение кукольных фильмов». Храм на Арбате в 1991 году был возвращен Русской Православной Церкви, а храм на ул. Долгоруковской не возвращен РПЦ до сих пор, хотя решения о необходимости, в принципе, вернуть Церкви отнятые у неё храмы принимались уже более 15 лет назад. В настоящее время здание на Долгоруковской ул. дом 25 находится в федеральной собственности и закреплено на праве хозяйственного ведения за ФГУП "ТПО "Киностудия «Союзмультфильм».
Первый мультфильм, выпущенный студией, назывался «В Африке жарко» (1936 год). С 1937 года начали выпускаться цветные мультфильмы. На студии снято более 1500 мультфильмов.

Источник: DVD5 R5
Качество видео: DVDRip
Формат видео: AVI

Видео: 720x544 (4:3), 25 fps, XviD ~ 1847 kbps avg, 0.189 bit/pixel
Аудио: 48 kHz, Dolby Digital AC3 2.0, 192 kbps

Раздача от:
01. Золотая антилопа (1954) 0:29:45
02. Вовка в Тридевятом царстве (1965) 0:18:57
03. Мой зеленый крокодил (1966) 0:08:45
04. Самый младший дождик (1971) 0:09:05
05. Новый Алладин (1979) 0:09:41
06. Замок лгунов (1983) 0:16:02
07. Мисс Новый год (1991) 0:09:05
Общее
Полное имя : Sbornik.multfilmov.1954-1991.DVDRip_[New-team]_by_AVP_Studio.avi
Формат : AVI
Формат/Информация : Audio Video Interleave
Размер файла : 235 Мбайт
Продолжительность : 16 м.
Общий поток : 2049 Кбит/сек
Программа кодирования : VirtualDubMod 1.5.10.3 | www.virtualdub-fr.org || (build 2550/release)
Библиотека кодирования : VirtualDubMod build 2550/release

Видео
Идентификатор : 0
Формат : MPEG-4 Visual
Профиль формата : Advanced Simple@L5
Параметр BVOP формата : 1
Параметр QPel формата : Нет
Параметр GMC формата : Без точки перехода
Параметр матрицы формата : Выборочная
Идентификатор кодека : XVID
Идентификатор кодека/Подсказка : XviD
Продолжительность : 16 м.
Битрейт : 1847 Кбит/сек
Ширина : 720 пикселей
Высота : 544 пикселя
Соотношение сторон : 4:3
Частота кадров : 25,000 кадров/сек
Цветовое пространство : YUV
Субдискретизация насыщенности : 4:2:0
Битовая глубина : 8 бит
Тип развёртки : Прогрессивная
Метод сжатия : С потерями
Бит/(Пиксели*Кадры) : 0.189
Размер потока : 212 Мбайт (90%)
Библиотека кодирования : XviD 1.2.1 (UTC 2008-12-04)

Аудио
Идентификатор : 1
Формат : AC-3
Формат/Информация : Audio Coding 3
Расширение режима : CM (complete main)
Параметр Endianness формата : Big
Идентификатор кодека : 2000
Продолжительность : 16 м.
Вид битрейта : Постоянный
Битрейт : 192 Кбит/сек
Каналы : 2 канала
Расположение каналов : Front: L R
Частота : 48,0 КГц
Частота кадров : 31,250 кадров/сек (1536 spf)
Метод сжатия : С потерями
Размер потока : 22,0 Мбайт (9%)
Выравнивание : Разделение по промежуткам
Продолжительность промежутка : 40 мс. (1,00 видеокадр)
Время предзагрузки промежутка : 500 мс
piratbit.pw



Скачать Сборник мультфильмов через торрент http://s014.radikal.ru/i326/1604/03/7f7aca127245.png Скачать фильм Сборник мультфильмов через торрент бесплантно в хорошем качестве Описание: «Союзмультфильм» — крупнейшая в СССР мульликационных фильмов, основанная в Москве 10 июня 1936 года. Студия создана 10 ... 10 10 7
Info! Золотая раздача, скачанное не засчитывается.
Торрент: Зарегистрирован [2016-04-06 14:11] · скачан: 53 раз
Статус: √ проверено
Размер: 1.46 GB
Как cкачать? Как скачать Сборник мультфильмов через торрент | qTorrent

% Раздел Тема Автор DL S | L
Мультсериалы [ 69.15 GB ] Веселые дии / Looney Tunes / Серии: 1-592 из ? [1931-2011 мультфильм короткометражка BDRip DVDRip от keeper.52] MVO+Original+SUB keeper.52 Скачать
2 | 0
Наши мультфильмы [ 6.08 GB ] Гора самоцветов / Сборник мультфильмов [2004 - 2009 мультфильм DVDRip-AVC] nn99nn Скачать
1 | 0
Наши мультфильмы [ 868 MB ] 38 попугаев. Сборник мультфильмов [1978-1991 кукольные мультфильмы DVDRip] Стpана Скачать
2 | 0
Наши мультфильмы [ 1.34 GB ] Сказки для малышей. Владимир Сутеев. Сборник мультфильмов [1955-1974 Мультфильм DVDRip] Aleg333ator Скачать
1 | 0
Наши мультфильмы [ 146.89 GB ] Сборник советских мультфильмов SATRip профессиональный читерас Скачать
2 | 1
Короткометражные мультфильмы [ 1.09 GB ] Сборник мультфильмов. Клуб весёлых человечков. [1959-1965 СССР мультфильм короткометражка DVDRip-AVC SATRip-AVC VHSRip-AVC от AVP Studio] AVP Studio Скачать
9 | 0
Короткометражные мультфильмы [ 1.08 GB ] Сборник мультфильмов. Клуб весёлых человечков. [1959-1965 СССР мультфильм короткометражка DVDRip SATRip VHSRip от AVP Studio] AVP Studio Скачать
1 | 0

28-11-2019 20:33  

Отключить всю рекламу на сайте

    Дорогой пользователь! Огромная просьба, поблагодарите релизера, оцените раздачу и оставьте свои комментарий, если Вы скачали Сборник мультфильмов через торрент бесплатно! Внесите свою лепту в развитие PiratBit!
    Комментировать посты могут только пользователи прошедшие не сложную регистрацию
    Показать сообщения:    

    Сборник мультфильмов через торрент
    Скачать бесплатно Сборник мультфильмов
    Сборник мультфильмов скачать торрент
    Сборник мультфильмов смотреть онлайн
    Cкачать фильм Сборник мультфильмов бесплатно
    Сборник мультфильмов скачать торрент в хорошем качестве
    Сборник мультфильмов смотреть онлайн бесплатно в хорошем качестве


    Вы не можете начинать темы
    Вы не можете отвечать на сообщения
    Вы не можете редактировать свои сообщения
    Вы не можете удалять свои сообщения
    Вы не можете голосовать в опросах
    Вы не можете прикреплять файлы к сообщениям
    Вы можете скачивать файлы