Ссылка на приватное зеркало нашего сайта всего за 1$. Внимание количество ограничено!!!

2 сезон

iTunes

iTunes

1

iTunes

iTunes

iTunes

WEBRip

iTunes

30
pack

Новость дня

ВАЖНО

!!Акция!!

Alien_RageХит недели

RePack

Horizon Zero Dawn

ИГРА 18+

pack

RePack

jed

!!Акция!!

Alien_Rage

RePack

fifa19

RePack

Assassins Creed: Odyssey

RePack

NEED FOR SPEED™ PAYBACK

4 сезон

9 сезон

Бесстыжие 9 сезон

Все сериалы

все сериалы на PB.wtf

RePack

FAR CRY 5
  

Тряпичный союз (Михаил Местецкий) [2015, комедия, драма, WEB-DL 1080p, [Русский] piratbit.pw

Тряпичный союз через торрент piratbit.pw

Размер: 3.85 GB | Добавлен: 4 года 5 мес. назад | Торрент скачан:704 раза
Скачать  

27-03-2016 19:48 Тряпичный союз Скачать торрент  


Тряпичный союз


ИНФОРМАЦИЯ:
Год выпуска:2015
Страна: Россия
Жанр: комедия, драма
Продолжительность: 01:38:40
Перевод: Не требуется [Русский]
Режиссер: Михаил Местецкий

В Ролях:


Иван Янковский, Александр Паль, Василий Буткевич, Павел Чинарёв, Анастасия Пронина, Федор Лавров, Елена Нестерова, Владислав Ветров, Кирилл Кяро, Андрей Крыжний, Петр Буслов, Александр Яценко

Описание:
Жизнь тихого подростка Вани меняется после знакомства с тремя очень странными парнями. Спортсмены, хулиганы, мечтатели, они называют себя «Тряпичный Союз» и верят, что изменят весь мир. Очарованный новой дружбой, Ваня поселяет парней у себя на даче и всеми силами пытается стать частью их «величайшей организации». Но у соседской девочки Саши свои планы на эту компанию.


ТЕХ.ДАННЫЕ:
Качество: WEB-DL 1080p
Формат: MKV
Видео: AVC, 1920x1080 (16:9), 5088 kbps, 24 fps, 0,102 bpp
Аудио: русский / AC3 / 5.1 / 48 kHz / 384 kbps / 16 bit ||
Навигация по главам: есть


General
Unique ID : 228609968945414598570058419612224792219 (0xABFCADB0B79CAE8B92D1E8776EFB269B)
Complete name : D:\Торенты\Tr1py4Hy1.Coyu3.2016.O.WEB-DL.1080p.mkv
Format : Matroska
Format version : Version 4 / Version 2
File size : 3.85 GiB
Duration : 1h 38mn
Overall bit rate : 5 583 Kbps
Encoded date : UTC 2016-03-27 18:42:50
Writing application : mkvmerge v8.3.0 ('Over the Horizon') 64bit
Writing library : libebml v1.3.1 + libmatroska v1.4.2

Video
ID : 1
Format : AVC
Format/Info : Advanced Video Codec
Format profile : High@L4.0
Format settings, CABAC : Yes
Format settings, ReFrames : 4 frames
Codec ID : V_MPEG4/ISO/AVC
Duration : 1h 38mn
Bit rate : 5 088 Kbps
Width : 1 920 pixels
Height : 1 080 pixels
Display aspect ratio : 16:9
Frame rate : 24.000 fps
Color space : YUV
Chroma subsampling : 4:2:0
Bit depth : 8 bits
Scan type : Progressive
Bits/(Pixel*Frame) : 0.102
Stream size : 3.51 GiB (91%)
Language : English
Default : Yes
Forced : No
Color primaries : BT.709-5, BT.1361, IEC 61966-2-4, SMPTE RP177
Transfer characteristics : BT.709-5, BT.1361
Matrix coefficients : BT.709-5, BT.1361, IEC 61966-2-4 709, SMPTE RP177

Audio
ID : 2
Format : AC-3
Format/Info : Audio Coding 3
Mode extension : CM (complete main)
Codec ID : A_AC3
Duration : 1h 38mn
Bit rate mode : Constant
Bit rate : 384 Kbps
Channel(s) : 6 channels
Channel positions : Front: L C R, Side: L R, LFE
Sampling rate : 48.0 KHz
Bit depth : 16 bits
Compression mode : Lossy
Stream size : 271 MiB (7%)
Language : Russian
Default : Yes
Forced : No

Menu
00:00:00.000 : en:Глава 1
00:05:41.416 : en:Глава 2
00:10:54.499 : en:Глава 3
00:16:25.207 : en:Глава 4
00:21:54.582 : en:Глава 5
00:27:59.415 : en:Глава 6
00:33:46.206 : en:Глава 7
00:39:19.747 : en:Глава 8
00:44:42.580 : en:Глава 9
00:51:07.496 : en:Глава 10
00:56:24.496 : en:Глава 11
01:02:09.329 : en:Глава 12
01:07:27.620 : en:Глава 13
01:13:03.953 : en:Глава 14
01:18:55.036 : en:Глава 15
01:25:27.869 : en:Глава 16
01:31:48.119 : en:Глава 17
Скриншоты:

© Оформление by .::Ворон::.
piratbit.pw



Скачать Тряпичный союз через торрент http://pic.kartinco.top/images/6/ordi9.jpg Скачать фильм Тряпичный союз через торрент бесплантно в хорошем качестве Описание: Жизнь тихого подростка Вани меняется после знакомства с тремя очень странными парнями. Спортсмены, хулиганы, мечтатели, они ... 8.1 10 18
Info! Золотая раздача, скачанное не засчитывается.
Торрент: Зарегистрирован [2016-03-27 19:48] · скачан: 704 раз
Статус: √ проверено
Размер: 3.85 GB
Как cкачать? Как скачать Тряпичный союз через торрент | qTorrent

% Раздел Тема Автор DL S | L
R.G. Resident & PiratVoice - Фильмы, Видео [ 1.88 GB ] Тряпичный союз [2015 WEB-DLRip-AVC от R.G. Resident] -Lexx- Скачать
1 | 0
Наши фильмы (HD, WEB-DL 720p, 1080p) [ 3.05 GB ] Тряпичный союз [2015 WEB-DL 720p] smaster Скачать
1 | 0
Наши новые фильмы 2016 [ 1.46 GB ] Тряпичный союз [2015 WEB-DLRip [Русский] Ворон Скачать
1 | 0
Наши новые фильмы 2016 [ 1.46 GB ] Тряпичный союз [2015 WEB DLRip-AVC] $-DRON-$ Скачать
1 | 0
Наши новые фильмы 2016 [ 707 MB ] Тряпичный союз [2015 WEB-DLRip Оригинал ""] coc900 Скачать
1 | 0

28-11-2019 20:33  

Отключить всю рекламу на сайте

27-03-2016 23:18 Тряпичный союз Скачать торрент  

Фильм получился хороший, неординарный. 7/10piratbit.pw



28-03-2016 14:08 Тряпичный союз Скачать торрент  

Ну-ка, ну-ка поглядим piratbit.pw



31-03-2016 19:29 Тряпичный союз Скачать торрент  

Бредятина.piratbit.pw



06-04-2016 19:40 Тряпичный союз Скачать торрент  

когда дурная голова, ногам покоя не даёт.piratbit.pw



10-04-2016 19:35 Тряпичный союз Скачать торрент  

редкостное г....piratbit.pw



    Дорогой пользователь! Огромная просьба, поблагодарите релизера, оцените раздачу и оставьте свои комментарий, если Вы скачали Тряпичный союз через торрент бесплатно! Внесите свою лепту в развитие PiratBit!
    Комментировать посты могут только пользователи прошедшие не сложную регистрацию
    Показать сообщения:    

    Тряпичный союз через торрент
    Скачать бесплатно Тряпичный союз
    Тряпичный союз скачать торрент
    Тряпичный союз смотреть онлайн
    Cкачать фильм Тряпичный союз бесплатно
    Тряпичный союз скачать торрент в хорошем качестве
    Тряпичный союз смотреть онлайн бесплатно в хорошем качестве


    Вы не можете начинать темы
    Вы не можете отвечать на сообщения
    Вы не можете редактировать свои сообщения
    Вы не можете удалять свои сообщения
    Вы не можете голосовать в опросах
    Вы не можете прикреплять файлы к сообщениям
    Вы можете скачивать файлы