Ссылка на приватное зеркало всего за 1$. Внимание количество ограничено!!!

iTunes

1+1

iTunes

мы

MV0

1

WEB-DLRip

Джокер

Пифагор

Ведьмак / The Witcher сериал

iTunes

ПШазам

iTunes

Оно 2

iTunes

30
pack

Вам бонус

ВАЖНО

!!Акция!!

Alien_RageХит недели

RePack

Resident Evil 21

ИГРА 18+

pack

RePack

jed

!!Акция!!

Alien_Rage

RePack

fifa19

RePack

Assassins Creed: Odyssey

RePack

NEED FOR SPEED™ PAYBACK

4 сезон

9 сезон

Бесстыжие 9 сезон

Все сериалы

все сериалы на PB.wtf

RePack

FAR CRY 5
  

День выборов 2 (Александр Баршак) [2016, комедия, WEB-DLRip-AVC, Оригинал [iTunes] от R.G.Resident piratbit.pw

День выборов 2 через торрент piratbit.pw

Размер: 1.46 GB | Добавлен: 3 года 10 мес. назад | Торрент скачан:1302 раза
Скачать  

27-03-2016 14:03 День выборов 2 Скачать торрент  

День выборов 2


Год выпуска: 2016
Страна: Россия
Жанр: комедия
Продолжительность: 01:44:06
Перевод: Оригинал [iTunes]
Режиссер: Александр Баршак
В ролях:

Леонид Барац, Ростислав Хаит, Александр Демидов, Камиль Ларин, Василий Уткин, Нонна Гришаева, Максим Виторган, Михаил Ефремов, Алексей Макаров, Алексей Кортнев, Михаил Козырев, Ян Цапник
Описание:
Игорь Цаплин будет избираться на третий срок, а поможет ему в этом уже знакомая зрителю команда пиарщиков.

Качество: WEB-DLRip-AVC Rip by White Smoke

Формат: MKV
Видео: AVC, 1024x430 (2.40:1), 1626 kbps, 25 fps, 0,148 bpp
Аудио: русский / AC3 / 5.1 / 48 kHz / 384 kbps / 16 bit ||

Код:

General
Unique ID                                : 228549297811478234758905828622357497649 (0xABF0FE5F58D6E9E2A79AC54025580731)
Complete name                            : C:\Den.ViboRov.2.2016.WEB-DLRip-AVC.by.White Smoke.R.G.Resident.mkv
Format                                   : Matroska
Format version                           : Version 4 / Version 2
File size                                : 1.46 GiB
Duration                                 : 1h 44mn
Overall bit rate                         : 2 010 Kbps
Encoded date                             : UTC 2016-03-27 13:20:14
Writing application                      : mkvmerge v6.8.0 ('Theme for Great Cities') 64bit built on Mar  2 2014 21:34:26
Writing library                          : libebml v1.3.0 + libmatroska v1.4.1

Video
ID                                       : 1
Format                                   : AVC
Format/Info                              : Advanced Video Codec
Format profile                           : High@L4.1
Format settings, CABAC                   : Yes
Format settings, ReFrames                : 12 frames
Codec ID                                 : V_MPEG4/ISO/AVC
Duration                                 : 1h 44mn
Bit rate                                 : 1 626 Kbps
Width                                    : 1 024 pixels
Height                                   : 430 pixels
Display aspect ratio                     : 2.40:1
Frame rate                               : 25.000 fps
Color space                              : YUV
Chroma subsampling                       : 4:2:0
Bit depth                                : 8 bits
Scan type                                : Progressive
Bits/(Pixel*Frame)                       : 0.148
Stream size                              : 1.15 GiB (79%)
Writing library                          : x264 core 148 r2638 7599210
Encoding settings                        : cabac=1 / ref=12 / deblock=1:-3:-3 / analyse=0x3:0x113 / me=umh / subme=9 / psy=1 / psy_rd=1.00:0.00 / mixed_ref=1 / me_range=32 / chroma_me=1 / trellis=2 / 8x8dct=1 / cqm=0 / deadzone=21,11 / fast_pskip=1 / chroma_qp_offset=-2 / threads=6 / lookahead_threads=1 / sliced_threads=0 / nr=0 / decimate=1 / interlaced=0 / bluray_compat=0 / constrained_intra=0 / bframes=12 / b_pyramid=2 / b_adapt=2 / b_bias=10 / direct=1 / weightb=0 / open_gop=0 / weightp=2 / keyint=240 / keyint_min=25 / scenecut=40 / intra_refresh=0 / rc_lookahead=40 / rc=2pass / mbtree=1 / bitrate=1626 / ratetol=1.0 / qcomp=0.85 / qpmin=0 / qpmax=69 / qpstep=4 / cplxblur=20.0 / qblur=0.5 / ip_ratio=1.40 / aq=1:1.00
Language                                 : English
Default                                  : Yes
Forced                                   : No

Audio
ID                                       : 2
Format                                   : AC-3
Format/Info                              : Audio Coding 3
Mode extension                           : CM (complete main)
Codec ID                                 : A_AC3
Duration                                 : 1h 44mn
Bit rate mode                            : Constant
Bit rate                                 : 384 Kbps
Channel(s)                               : 6 channels
Channel positions                        : Front: L C R, Side: L R, LFE
Sampling rate                            : 48.0 KHz
Bit depth                                : 16 bits
Compression mode                         : Lossy
Stream size                              : 286 MiB (19%)
Language                                 : Russian
Default                                  : Yes
Forced                                   : No


© Оформление by White Smoke piratbit.pw



Скачать День выборов 2 через торрент http://i6.imageban.ru/out/2016/03/27/a1bdb33226db451d6f1339f02f616266.png Скачать фильм День выборов 2 через торрент бесплантно в хорошем качестве Описание: Игорь Цаплин будет избираться на третий срок, а поможет ему в этом уже знакомая зрителю команда пиарщиков. ... 9.3 10 30
Info! Золотая раздача, скачанное не засчитывается.
Торрент: Зарегистрирован [2016-03-27 14:03] · скачан: 1 302 раз
Статус: √ проверено
Размер: 1.46 GB
Как cкачать? Как скачать День выборов 2 через торрент | qTorrent

28-11-2019 20:33  

Отключить всю рекламу на сайте

27-03-2016 16:34 День выборов 2 Скачать торрент  

переиграно и не особо смешно, первая удачнее даже вышла. а уж от "дня радио" и "о чем гов. муж." далеко.piratbit.pw



29-03-2016 11:33 День выборов 2 Скачать торрент  

piratbit.pw



02-04-2016 13:40 День выборов 2 Скачать торрент  

фильм - шляпа! первая часть была огонь, а это жалкая пародия....piratbit.pw



13-04-2016 16:09 День выборов 2 Скачать торрент  

Согласен, фильм не особо порадовал...piratbit.pw



    Дорогой пользователь! Огромная просьба, поблагодарите релизера, оцените раздачу и оставьте свои комментарий, если Вы скачали День выборов 2 через торрент бесплатно! Внесите свою лепту в развитие PiratBit!
    Комментировать посты могут только пользователи прошедшие не сложную регистрацию
    Показать сообщения:    

    День выборов 2 через торрент
    Скачать бесплатно День выборов 2
    День выборов 2 скачать торрент
    День выборов 2 смотреть онлайн
    Cкачать фильм День выборов 2 бесплатно
    День выборов 2 скачать торрент в хорошем качестве
    День выборов 2 смотреть онлайн бесплатно в хорошем качестве


    Вы не можете начинать темы
    Вы не можете отвечать на сообщения
    Вы не можете редактировать свои сообщения
    Вы не можете удалять свои сообщения
    Вы не можете голосовать в опросах
    Вы не можете прикреплять файлы к сообщениям
    Вы можете скачивать файлы