Ссылка на приватное зеркало всего за 1$. Внимание количество ограничено!!!

iTunes

1+1

iTunes

мы

MV0

1

WEB-DLRip

Джокер

Пифагор

Ведьмак / The Witcher сериал

iTunes

ПШазам

iTunes

Оно 2

iTunes

30
pack

Вам бонус

ВАЖНО

!!Акция!!

Alien_RageХит недели

RePack

Resident Evil 21

ИГРА 18+

pack

RePack

jed

!!Акция!!

Alien_Rage

RePack

fifa19

RePack

Assassins Creed: Odyssey

RePack

NEED FOR SPEED™ PAYBACK

4 сезон

9 сезон

Бесстыжие 9 сезон

Все сериалы

все сериалы на PB.wtf

RePack

FAR CRY 5
  

Ложь во спасение / The Good Lie (Филипп Фалардо) [2014, драма, BDRip-AVC, Профессиональный многоголосый [Лицензия / iTunes] R.G.Resident piratbit.pw

Ложь во спасение через торрент piratbit.pw

Размер: 1.56 GB | Добавлен: 3 года 10 мес. назад | Торрент скачан:29 раз
Скачать  

26-03-2016 12:27 Ложь во спасение Скачать торрент  

Ложь во спасение / The Good Lie
««Miracles are made by people who refuse to stop believing»»

Год выпуска: 2014
Страна: Кения, Индия, США
Жанр: драма
Продолжительность: 01:49:59
Перевод: Профессиональный многоголосый [Лицензия / iTunes]
Субтитры: русские (Forced), русские, английские (Full)
Режиссер: Филипп Фалардо
В ролях:

Риз Уизерспун (Carrie), Арнольд Ошенг (Mamere), Гер Дуэни (Jeremiah), Эммануэль Джал (Paul), Кори Столл (Jack), Кут Вил (Abital), Феми Огунс (Theo), Сара Бэйкер (Pamela), Линдси Гаррет (Jenny), Peterdeng Mongok (Young Mamere), Оквар Джале (Young Theo), Thon Kueth (Young Jeremiah)
Описание:
История об американке, которая согласилась принять беженцев из Судана в своем доме в Соединенных Штатах.
Мировая премьера: 7 сентября 2014

MPAA: PG-13 - Детям до 13 лет просмотр не желателен
Качество: BDRip-AVC Rip by schultz R.G.Resident
Формат: MKV
Видео: AVC, 1024x576 (16:9), 1641 kbps, 23,976 fps, 0,116 bpp
Аудио: русский / AC3 / 5.1 / 48 kHz / 384 kbps / 16 bit

Код:

General
Unique ID                                : 184276040136824607787025703463116766931 (0x8AA2463D5378E48FACDD67BBCA5E7ED3)
Complete name                            : D:\download\The.Good.Lie.2014.BDRip-AVC by schultz R.G.Resident.mkv
Format                                   : Matroska
Format version                           : Version 4 / Version 2
File size                                : 1.56 GiB
Duration                                 : 1h 49mn
Overall bit rate                         : 2 025 Kbps
Encoded date                             : UTC 2016-03-26 12:01:41
Writing application                      : mkvmerge v6.7.0 ('Back to the Ground') 64bit built on Jan  8 2014 15:10:52
Writing library                          : libebml v1.3.0 + libmatroska v1.4.1

Video
ID                                       : 1
Format                                   : AVC
Format/Info                              : Advanced Video Codec
Format profile                           : High@L4.1
Format settings, CABAC                   : Yes
Format settings, ReFrames                : 12 frames
Codec ID                                 : V_MPEG4/ISO/AVC
Duration                                 : 1h 49mn
Bit rate                                 : 1 641 Kbps
Width                                    : 1 024 pixels
Height                                   : 576 pixels
Display aspect ratio                     : 16:9
Frame rate                               : 23.976 fps
Color space                              : YUV
Chroma subsampling                       : 4:2:0
Bit depth                                : 8 bits
Scan type                                : Progressive
Bits/(Pixel*Frame)                       : 0.116
Stream size                              : 1.23 GiB (79%)
Writing library                          : x264 core 146 r2538 121396c
Encoding settings                        : cabac=1 / ref=12 / deblock=1:-3:-3 / analyse=0x3:0x113 / me=umh / subme=11 / psy=1 / psy_rd=1.00:0.00 / mixed_ref=1 / me_range=48 / chroma_me=1 / trellis=2 / 8x8dct=1 / cqm=0 / deadzone=21,11 / fast_pskip=0 / chroma_qp_offset=-2 / threads=12 / lookahead_threads=3 / sliced_threads=0 / nr=0 / decimate=1 / interlaced=0 / bluray_compat=0 / constrained_intra=0 / bframes=13 / b_pyramid=2 / b_adapt=2 / b_bias=0 / direct=3 / weightb=1 / open_gop=0 / weightp=2 / keyint=240 / keyint_min=23 / scenecut=40 / intra_refresh=0 / rc_lookahead=40 / rc=2pass / mbtree=1 / bitrate=1641 / ratetol=1.0 / qcomp=0.60 / qpmin=0 / qpmax=69 / qpstep=4 / cplxblur=20.0 / qblur=0.5 / vbv_maxrate=14000 / vbv_bufsize=14000 / nal_hrd=none / filler=0 / ip_ratio=1.40 / aq=1:1.00
Default                                  : Yes
Forced                                   : No

Audio
ID                                       : 2
Format                                   : AC-3
Format/Info                              : Audio Coding 3
Mode extension                           : CM (complete main)
Codec ID                                 : A_AC3
Duration                                 : 1h 49mn
Bit rate mode                            : Constant
Bit rate                                 : 384 Kbps
Channel(s)                               : 6 channels
Channel positions                        : Front: L C R, Side: L R, LFE
Sampling rate                            : 48.0 KHz
Bit depth                                : 16 bits
Compression mode                         : Lossy
Stream size                              : 302 MiB (19%)
Language                                 : Russian
Default                                  : Yes
Forced                                   : No

Text #1
ID                                       : 3
Format                                   : UTF-8
Codec ID                                 : S_TEXT/UTF8
Codec ID/Info                            : UTF-8 Plain Text
Title                                    : Forced
Language                                 : Russian
Default                                  : Yes
Forced                                   : No

Text #2
ID                                       : 4
Format                                   : UTF-8
Codec ID                                 : S_TEXT/UTF8
Codec ID/Info                            : UTF-8 Plain Text
Language                                 : Russian
Default                                  : No
Forced                                   : No

Text #3
ID                                       : 5
Format                                   : UTF-8
Codec ID                                 : S_TEXT/UTF8
Codec ID/Info                            : UTF-8 Plain Text
Title                                    : Full
Language                                 : English
Default                                  : No
Forced                                   : No



piratbit.pw



Скачать Ложь во спасение через торрент http://pic1.kartinco.top/images/10/ejpqs.jpg Скачать фильм Ложь во спасение через торрент бесплантно в хорошем качестве Описание: История об американке, которая согласилась принять беженцев из Судана в своем доме в Соединенных Штатах.✦ Мировая премьера: 7 ... 10 10 1
Info! Золотая раздача, скачанное не засчитывается.
Торрент: Зарегистрирован [2016-03-26 12:27] · скачан: 29 раз
Статус: √ проверено
Размер: 1.56 GB
Как cкачать? Как скачать Ложь во спасение через торрент | qTorrent

28-11-2019 20:33  

Отключить всю рекламу на сайте

    Дорогой пользователь! Огромная просьба, поблагодарите релизера, оцените раздачу и оставьте свои комментарий, если Вы скачали Ложь во спасение через торрент бесплатно! Внесите свою лепту в развитие PiratBit!
    Комментировать посты могут только пользователи прошедшие не сложную регистрацию
    Показать сообщения:    

    Ложь во спасение через торрент
    Скачать бесплатно Ложь во спасение
    Ложь во спасение скачать торрент
    Ложь во спасение смотреть онлайн
    Cкачать фильм Ложь во спасение бесплатно
    Ложь во спасение скачать торрент в хорошем качестве
    Ложь во спасение смотреть онлайн бесплатно в хорошем качестве


    Вы не можете начинать темы
    Вы не можете отвечать на сообщения
    Вы не можете редактировать свои сообщения
    Вы не можете удалять свои сообщения
    Вы не можете голосовать в опросах
    Вы не можете прикреплять файлы к сообщениям
    Вы можете скачивать файлы