Marvel's Avengers Deluxe Edition (супер цена) 159р. Внимание количество ограничено!!!

2 сезон

iTunes

iTunes

1

iTunes

iTunes

iTunes

WEBRip

iTunes

30
pack

Новость дня

ВАЖНО

!!Акция!!

Alien_RageХит недели

RePack

Horizon Zero Dawn

ИГРА 18+

pack

RePack

jed

!!Акция!!

Alien_Rage

RePack

fifa19

RePack

Assassins Creed: Odyssey

RePack

NEED FOR SPEED™ PAYBACK

4 сезон

9 сезон

Бесстыжие 9 сезон

Все сериалы

все сериалы на PB.wtf

RePack

FAR CRY 5
  

День выборов 2 (Александр Баршак) [2016 г., Комедия, WEB-DL (1080p) Оригинал] piratbit.pw

День выборов 2 через торрент piratbit.pw

Размер: 3.64 GB | Добавлен: 4 года 5 мес. назад | Торрент скачан:1848 раз
Скачать  

24-03-2016 19:59 День выборов 2 Скачать торрент  

День выборов 2
Год выпуска: 2016
Страна: Россия
Жанр: Комедия
Продолжительность: 01:44:06
Перевод:Оригинал
Субтитры: Нет

Режиссер: Александр Баршак

В ролях: Леонид Барац, Ростислав Хаит, Александр Демидов, Камиль Ларин, Василий Уткин, Нонна Гришаева, Максим Виторган, Михаил Ефремов, Алексей Макаров, Алексей Кортнев, Михаил Козырев, Ян Цапник, Александр Самойленко, Андрей Смоляков, Агриппина Стеклова, Сергей Бурунов, Артём Осипов, Сергей Стёпин, Тимофей Трибунцев, Константин Чепурин

Описание: Игорь Цаплин будет избираться на третий срок, а поможет ему в этом уже знакомая зрителю команда пиарщиков.

Качество: WEB-DL (1080p)
Формат: MKV
Видео кодек: AVC
Аудио кодек: AC3
Видео: MPEG-4 AVC, (1920x806),4 525 Кбит/с, 25.000 кадра/сек
Аудио#1: AC3, 6 ch,384 kbps (Rus) 48.0 KHz Оригинал
скриншот   скриншот   скриншот  

Тип потока: Видео
Длительность: 01:44:06
Кодек: AVC
Кодек/описание: Advanced Video Codec
Кодек/профиль: High@L4.0
Кодек/ID: V_MPEG4/ISO/AVC
Кодек/CABAC: Yes
Кодек/ReFrames: 5 frames
Размеры изображения: 1920 x 806 (2.40:1)
Частота кадров: 25.000 fps
Частота кадров/тип: Constant
Размер потока: 3.29 GiB (90%)
Битрейт: 4 525 Kbps
Цветовое пространство: YUV
Тип развёртки: Progressive
Колориметрия: 4:2:0
Глубина: 8 bits
:
Тип потока: Звук #1
Язык: Russian
Длительность: 01:44:06.920
Кодек: AC-3
Кодек/описание: Audio Coding 3
Кодек/ID: A_AC3
Частота дискретизации: 48.0 KHz
Каналов: 6 channels
Битрейт: 384 Kbps
Битрейт/тип: Constant
Размер потока: 286 MiB (8%)
Глубина: 16 bits
Метод сжатия: Lossy

piratbit.pw



Скачать День выборов 2 через торрент http://pic1.kartinco.top/images/10/hbypl.jpg Скачать фильм День выборов 2 через торрент бесплантно в хорошем качестве Описание: Игорь Цаплин будет избираться на третий срок, а поможет ему в этом уже знакомая зрителю команда ... 9.6 10 66
Info! Золотая раздача, скачанное не засчитывается.
Торрент: Зарегистрирован [2016-03-24 19:59] · скачан: 1 848 раз
Статус: √ проверено
Размер: 3.64 GB
Как cкачать? Как скачать День выборов 2 через торрент | qTorrent

% Раздел Тема Автор DL S | L
R.G. Resident & PiratVoice - Фильмы, Видео [ 1.46 GB ] День выборов 2 [2016 WEB-DLRip-AVC Оригинал MeMoRiSe Скачать
1 | 0

28-11-2019 20:33  

Отключить всю рекламу на сайте

24-03-2016 20:01 День выборов 2 Скачать торрент  

фильм супер советую
5000 тысяч очков золотоpiratbit.pw



24-03-2016 20:03 День выборов 2 Скачать торрент  

Не жалко, отдал 5000 очков! Всем приятного просмотра.piratbit.pw



24-03-2016 21:24 День выборов 2 Скачать торрент  

Отличный фильмец)piratbit.pw



25-03-2016 07:55 День выборов 2 Скачать торрент  

да, не ударили в грязь лицом, многие увидели себя со стороныpiratbit.pw



25-03-2016 08:34 День выборов 2 Скачать торрент  

Надеюсь сей релиз без рекламы?piratbit.pw



25-03-2016 10:09 День выборов 2 Скачать торрент  

Хватило на 40 минут, фильм пустой как баланда каторжника. По большому счету это не комедия, а попытка сделать сатиру на официальную комедию называемую - выборы. Получилось не прикольно, пресно и неинтересно.piratbit.pw



26-03-2016 09:34 День выборов 2 Скачать торрент  

Budunarij писал(а):

как баланда каторжника

Доводилось ? piratbit.pw



26-03-2016 12:56 День выборов 2 Скачать торрент  

Фильм очень понравился:)piratbit.pw



27-03-2016 05:01 День выборов 2 Скачать торрент  

Спасибо, думаю стоит посмотреть)piratbit.pw



27-03-2016 22:08 День выборов 2 Скачать торрент  

Очень понравился,спасибо !!!!piratbit.pw



    Дорогой пользователь! Огромная просьба, поблагодарите релизера, оцените раздачу и оставьте свои комментарий, если Вы скачали День выборов 2 через торрент бесплатно! Внесите свою лепту в развитие PiratBit!
    Комментировать посты могут только пользователи прошедшие не сложную регистрацию
    Показать сообщения:    

    День выборов 2 через торрент
    Скачать бесплатно День выборов 2
    День выборов 2 скачать торрент
    День выборов 2 смотреть онлайн
    Cкачать фильм День выборов 2 бесплатно
    День выборов 2 скачать торрент в хорошем качестве
    День выборов 2 смотреть онлайн бесплатно в хорошем качестве


    Вы не можете начинать темы
    Вы не можете отвечать на сообщения
    Вы не можете редактировать свои сообщения
    Вы не можете удалять свои сообщения
    Вы не можете голосовать в опросах
    Вы не можете прикреплять файлы к сообщениям
    Вы можете скачивать файлы