Marvel's Avengers Deluxe Edition (супер цена) 159р. Внимание количество ограничено!!!

2 сезон

iTunes

iTunes

1

iTunes

iTunes

iTunes

WEBRip

iTunes

30
pack

Новость дня

ВАЖНО

!!Акция!!

Alien_RageХит недели

RePack

Horizon Zero Dawn

ИГРА 18+

pack

RePack

jed

!!Акция!!

Alien_Rage

RePack

fifa19

RePack

Assassins Creed: Odyssey

RePack

NEED FOR SPEED™ PAYBACK

4 сезон

9 сезон

Бесстыжие 9 сезон

Все сериалы

все сериалы на PB.wtf

RePack

FAR CRY 5
  

Вакантна жизнь шеф-повара (Рустам Ильясов) [2015, драма, WEB-DL 720p| iTunes] piratbit.pw

Вакантна жизнь шеф-повара через торрент piratbit.pw

Размер: 2.6 GB | Добавлен: 4 года 5 мес. назад | Торрент скачан:89 раз
Скачать  

23-03-2016 18:59 Вакантна жизнь шеф-повара Скачать торрент  

Информация о фильме

Название: Вакантна жизнь шеф-повара

Оригинальное название: Вакантна жизнь шеф-повара

Год выхода: 2015

Жанр: драма

Выпущено: Россия

Продолжительность: 01:24:49

Озвучивание: Оригинал [iTunes]

Режиссер: Рустам Ильясов

В ролях: Пётр Фёдоров, Виктор Вержбицкий, Вильма Кутавичюте, Алексей Колубков, Софья Райзман, Виктор Проскурин, Дмитрий Калязин, Александр Обласов, Екатерина Молоховская, Надежда Жарычева

Описание: Андрей и Лена — супружеская пара, они молоды и счастливы. Когда Лена уезжает на несколько дней, Андрей уходит в загул со своим лучшим другом. Переезжая из клуба в клуб, Андрей попадает в необычное место под названием «Фотоателье». Там ему предлагают принять участие в интригующей игре: побыть в роли другого человека, на несколько дней став шеф-поваром дорогого ресторана, у которого есть все: богатый дом, интересная работа и красивая жена. Теперь Андрею предстоит многое выяснить: кто такой шеф-повар, кем является он сам, и кому можно доверять в изменившемся мире.



Файл
Качество: WEB-DL 720p
Формат: MKV
Видео: MPEG-4 AVC, 3916 kb/s, 1280x536, 24.000 fps
Аудио: AC3, 384 kb/s (6 ch), 48.0 KHz
General
Unique ID : 222085712791455029074243929491005385237 (0xA7142706DE7F8B70A0F7702AFFA62A15)
Complete name : D:\Торенты\Vakantna.zhyzn.shef.p0vara.2016.O.WEB-DL.720p.mkv
Format : Matroska
Format version : Version 4 / Version 2
File size : 2.60 GiB
Duration : 1h 24mn
Overall bit rate : 4 388 Kbps
Encoded date : UTC 2016-03-23 18:04:55
Writing application : mkvmerge v8.3.0 ('Over the Horizon') 64bit
Writing library : libebml v1.3.1 + libmatroska v1.4.2

Video
ID : 1
Format : AVC
Format/Info : Advanced Video Codec
Format profile : Main@L3.1
Format settings, CABAC : No
Format settings, ReFrames : 2 frames
Codec ID : V_MPEG4/ISO/AVC
Duration : 1h 24mn
Bit rate : 3 916 Kbps
Width : 1 280 pixels
Height : 536 pixels
Display aspect ratio : 2.40:1
Frame rate mode : Constant
Frame rate : 24.000 fps
Color space : YUV
Chroma subsampling : 4:2:0
Bit depth : 8 bits
Scan type : Progressive
Bits/(Pixel*Frame) : 0.238
Stream size : 2.32 GiB (89%)
Language : English
Default : Yes
Forced : No
Color range : Limited
Color primaries : BT.709
Transfer characteristics : BT.709
Matrix coefficients : BT.709

Audio
ID : 2
Format : AC-3
Format/Info : Audio Coding 3
Mode extension : CM (complete main)
Format settings, Endianness : Big
Codec ID : A_AC3
Duration : 1h 24mn
Bit rate mode : Constant
Bit rate : 384 Kbps
Channel(s) : 6 channels
Channel positions : Front: L C R, Side: L R, LFE
Sampling rate : 48.0 KHz
Frame rate : 31.250 fps (1536 spf)
Compression mode : Lossy
Stream size : 233 MiB (9%)
Language : Russian
Default : Yes
Forced : No

Menu
00:00:00.000 : en:Глава 1
00:06:43.791 : en:Глава 2
00:13:37.582 : en:Глава 3
00:22:38.957 : en:Глава 4
00:26:40.290 : en:Глава 5
00:32:17.206 : en:Глава 6
00:37:38.456 : en:Глава 7
00:43:04.456 : en:Глава 8
00:48:55.497 : en:Глава 9
00:52:56.913 : en:Глава 10
01:00:02.579 : en:Глава 11
01:06:31.120 : en:Глава 12
01:11:11.745 : en:Глава 13
01:17:51.203 : en:Глава 14
piratbit.pw



Скачать Вакантна жизнь шеф-повара через торрент http://i76.fastpic.ru/big/2016/0323/10/c74d8db5fd66b49ba9b58aac4de46610.jpg Скачать фильм Вакантна жизнь шеф-повара через торрент бесплантно в хорошем качестве Описание: Андрей и Лена — супружеская пара, они молоды и счастливы. Когда Лена уезжает на несколько дней, Андрей уходит в загул со своим ... 10 10 5
Info! Золотая раздача, скачанное не засчитывается.
Торрент: Зарегистрирован [2016-03-23 18:59] · скачан: 89 раз
Статус: √ проверено
Размер: 2.6 GB
Как cкачать? Как скачать Вакантна жизнь шеф-повара через торрент | qTorrent

% Раздел Тема Автор DL S | L
Наши фильмы (HD, WEB-DL 720p, 1080p) [ 2.86 GB ] Вакантна жизнь шеф-повара [2015 WEB-DL 1080p| ] Ворон Скачать
1 | 0
Наши новые фильмы 2015 [ 745 MB ] Вакантна жизнь шеф-повара [2015 WEB-DLRip by _Один_777] Один 777 Скачать
1 | 0
Фильмы 2015 [DVDrip, WEB-DLRip, HDrip] [ 1.36 GB ] Вакантна жизнь шеф-повара [2015 WEB-DLRip / ] Ворон Скачать
1 | 0

28-11-2019 20:33  

Отключить всю рекламу на сайте

    Дорогой пользователь! Огромная просьба, поблагодарите релизера, оцените раздачу и оставьте свои комментарий, если Вы скачали Вакантна жизнь шеф-повара через торрент бесплатно! Внесите свою лепту в развитие PiratBit!
    Комментировать посты могут только пользователи прошедшие не сложную регистрацию
    Показать сообщения:    

    Вакантна жизнь шеф-повара через торрент
    Скачать бесплатно Вакантна жизнь шеф-повара
    Вакантна жизнь шеф-повара скачать торрент
    Вакантна жизнь шеф-повара смотреть онлайн
    Cкачать фильм Вакантна жизнь шеф-повара бесплатно
    Вакантна жизнь шеф-повара скачать торрент в хорошем качестве
    Вакантна жизнь шеф-повара смотреть онлайн бесплатно в хорошем качестве


    Вы не можете начинать темы
    Вы не можете отвечать на сообщения
    Вы не можете редактировать свои сообщения
    Вы не можете удалять свои сообщения
    Вы не можете голосовать в опросах
    Вы не можете прикреплять файлы к сообщениям
    Вы можете скачивать файлы