Marvel's Avengers Deluxe Edition (супер цена) 159р. Внимание количество ограничено!!!

2 сезон

iTunes

iTunes

1

iTunes

iTunes

iTunes

WEBRip

iTunes

30
pack

Новость дня

ВАЖНО

!!Акция!!

Alien_RageХит недели

RePack

Horizon Zero Dawn

ИГРА 18+

pack

RePack

jed

!!Акция!!

Alien_Rage

RePack

fifa19

RePack

Assassins Creed: Odyssey

RePack

NEED FOR SPEED™ PAYBACK

4 сезон

9 сезон

Бесстыжие 9 сезон

Все сериалы

все сериалы на PB.wtf

RePack

FAR CRY 5
  

Племя / The Tribe (Мирослав Слабошпицкий) [2014, драма, криминал, BDRip 1080p by msltel] не требуется piratbit.pw

Племя через торрент piratbit.pw

Размер: 14.5 GB | Добавлен: 4 года 6 мес. назад | Торрент скачан:73 раза
Скачать  

15-03-2016 06:31 Племя Скачать торрент  

Название: Племя
Оригинальное название: The Tribe
Год выпуска: 2014
Страна: Украина, Нидерланды
Жанр: драма, криминал
Продолжительность: 02:12:09
Перевод: немое кино

Режиссёр: Мирослав Слабошпицкий

В ролях: Григорий Фесенко, Яна Новикова, Роза Бабий, Александр Дзядевич, Ярослав Билецкий, Иван Тишко, Александр Осадчий, Александр Сидельников, Александр Паниван, Кирилл Кошик

Описание: Главный герой фильма, Сергей, попадает в специализированный интернат для слабослышащих, где существует криминальная организация Племя. Он пытается занять своё место в иерархии школы и принимает участие в нескольких ограблениях. Когда Сергей влюбляется в Анну, одну из наложниц Смотрящего, ему приходится нарушить неписанные законы племени...



Качество: BDRip 1080p Сравнение с исходником
Формат: MKV
Видео: MPEG-4 AVC, 12.7 Mбит/с, 1920x822, 23,976 кадра/с
Аудио 1: фон, DTS, 1509 kbps, 6 ch, 48 kHz
Аудио 2: английский, DTS, 1509 kbps, 2 ch, 48 kHz [комментарий]
Субтитры: английские (звуки)
Общее
Уникальный идентификатор : 243078171879285678848615995279422264150 (0xB6DF272B54A1AC95B2FAFBF911481356)
Полное имя : D:\Video\Племя.2014.BDRip.1080p.mkv
Формат : Matroska
Версия формата : Version 4 / Version 2
Размер файла : 14,5 Гбайт
Продолжительность : 2 ч. 12 м.
Общий поток : 15,7 Мбит/сек
Дата кодирования : UTC 2016-03-15 03:55:06
Программа кодирования : mkvmerge v8.2.0 ('World of Adventure') 64bit
Библиотека кодирования : libebml v1.3.1 + libmatroska v1.4.2

Видео
Идентификатор : 1
Формат : AVC
Формат/Информация : Advanced Video Codec
Профиль формата : High@L4.1
Параметр CABAC формата : Да
Параметр ReFrames формата : 4 кадра
Идентификатор кодека : V_MPEG4/ISO/AVC
Продолжительность : 2 ч. 11 м.
Битрейт : 12,7 Мбит/сек
Ширина : 1920 пикселей
Высота : 822 пикселя
Соотношение сторон : 2,35:1
Режим частоты кадров : Постоянный
Частота кадров : 23,976 (24000/1001) кадра/сек
Цветовое пространство : YUV
Субдискретизация насыщенности : 4:2:0
Битовая глубина : 8 бит
Тип развёртки : Прогрессивная
Бит/(Пиксели*Кадры) : 0.336
Размер потока : 11,7 Гбайт (81%)
Библиотека кодирования : x264 core 146 r2538 121396c
Настройки программы : cabac=1 / ref=4 / deblock=1:-1:-1 / analyse=0x3:0x113 / me=umh / subme=10 / psy=1 / psy_rd=1.00:0.15 / mixed_ref=1 / me_range=32 / chroma_me=1 / trellis=2 / 8x8dct=1 / cqm=0 / deadzone=21,11 / fast_pskip=1 / chroma_qp_offset=-3 / threads=6 / lookahead_threads=1 / sliced_threads=0 / nr=0 / decimate=1 / interlaced=0 / bluray_compat=0 / constrained_intra=0 / bframes=9 / b_pyramid=2 / b_adapt=2 / b_bias=0 / direct=1 / weightb=1 / open_gop=0 / weightp=2 / keyint=230 / keyint_min=23 / scenecut=40 / intra_refresh=0 / rc_lookahead=40 / rc=crf / mbtree=0 / crf=16.6 / qcomp=0.60 / qpmin=0 / qpmax=69 / qpstep=4 / vbv_maxrate=40000 / vbv_bufsize=50000 / crf_max=0.0 / nal_hrd=none / filler=0 / ip_ratio=1.40 / pb_ratio=1.30 / aq=1:1.00
Язык : English
Default : Да
Forced : Нет

Аудио #1
Идентификатор : 2
Формат : DTS
Формат/Информация : Digital Theater Systems
Режим : 16
Параметр Endianness формата : Big
Идентификатор кодека : A_DTS
Продолжительность : 2 ч. 12 м.
Вид битрейта : Постоянный
Битрейт : 1509 Кбит/сек
Каналы : 6 каналов
Расположение каналов : Front: L C R, Side: L R, LFE
Частота : 48,0 КГц
Частота кадров : 93,750 кадра/сек (512 spf)
Битовая глубина : 24 бит
Метод сжатия : С потерями
Размер потока : 1,39 Гбайт (10%)
Заголовок : фон
Default : Да
Forced : Нет

Аудио #2
Идентификатор : 3
Формат : DTS
Формат/Информация : Digital Theater Systems
Режим : 16
Параметр Endianness формата : Big
Идентификатор кодека : A_DTS
Продолжительность : 2 ч. 11 м.
Вид битрейта : Постоянный
Битрейт : 1509 Кбит/сек
Каналы : 2 канала
Расположение каналов : Front: L R
Частота : 48,0 КГц
Частота кадров : 93,750 кадра/сек (512 spf)
Битовая глубина : 24 бит
Метод сжатия : С потерями
Размер потока : 1,39 Гбайт (10%)
Заголовок : комментарий
Язык : English
Default : Нет
Forced : Нет

Текст
Идентификатор : 4
Формат : UTF-8
Идентификатор кодека : S_TEXT/UTF8
Идентификатор кодека/Информация : UTF-8 Plain Text
Продолжительность : 2 ч. 11 м.
Битрейт : 3 бит/сек
Count of elements : 204
Размер потока : 2,99 Кбайт (0%)
Заголовок : комментарий
Язык : English
Default : Нет
Forced : Нет
piratbit.pw



Скачать Племя через торрент http://s019.radikal.ru/i612/1603/c1/56d28dc2e2f7.jpg Скачать фильм Племя через торрент бесплантно в хорошем качестве Описание: Главный герой фильма, Сергей, попадает в специализированный интернат для слабослышащих, где существует криминальная организация ... 6.8 10 9
Info! Золотая раздача, скачанное не засчитывается.
Торрент: Зарегистрирован [2016-03-15 06:31] · скачан: 73 раз
Статус: √ проверено
Размер: 14.5 GB
Как cкачать? Как скачать Племя через торрент | qTorrent

% Раздел Тема Автор DL S | L
Наши фильмы (HD, WEB-DL 720p, 1080p) [ 4.58 GB ] Племя / The Tribe [2014 BDRip 720p by msltel] не требуется msltel Скачать
1 | 0

28-11-2019 20:33  

Отключить всю рекламу на сайте

    Дорогой пользователь! Огромная просьба, поблагодарите релизера, оцените раздачу и оставьте свои комментарий, если Вы скачали Племя через торрент бесплатно! Внесите свою лепту в развитие PiratBit!
    Комментировать посты могут только пользователи прошедшие не сложную регистрацию
    Показать сообщения:    

    Племя через торрент
    Скачать бесплатно Племя
    Племя скачать торрент
    Племя смотреть онлайн
    Cкачать фильм Племя бесплатно
    Племя скачать торрент в хорошем качестве
    Племя смотреть онлайн бесплатно в хорошем качестве


    Вы не можете начинать темы
    Вы не можете отвечать на сообщения
    Вы не можете редактировать свои сообщения
    Вы не можете удалять свои сообщения
    Вы не можете голосовать в опросах
    Вы не можете прикреплять файлы к сообщениям
    Вы можете скачивать файлы