1 сезон

1 сезон

iTunes

1

КиноПоиск HD

Кинопоиск HD

iTunes

13

1 сезон

RePack

30

Ultimate

ВАЖНО

ИГРА 18+

pack

RePack

MK11
pack

Легкие деньги

RePack

jed

RePack

fifa19

RePack

RDR2

RePack

NEED FOR SPEED™ PAYBACK

4 сезон

9 сезон

Бесстыжие 9 сезон

Все сериалы

все сериалы на PB.wtf

RePack

FAR CRY 5
  
Magnet ссылка

Омерзительная восьмерка / The Hateful Eight (Квентин Тарантино ) [2015, триллер, драма, криминал, BDRip-AVC от _denis_100 / NNNB] 2xAVO piratbit.pw

Омерзительная восьмерка через торрент piratbit.pw

Размер: 2.91 GB | Добавлен: 5 лет 1 мес. назад | Торрент скачан:493 раза
Скачать  

09-03-2016 09:00 Омерзительная восьмерка Скачать торрент  

Омерзительная восьмерка / The Hateful Eight
«Без хорошей причины сюда не лезут»


Год выпуска: 2015
Страна: США
Жанр: триллер, драма, криминал, детектив, вестерн
Продолжительность: 02:47:45
Перевод: Авторский (одноголосый)
Субтитры: русские (Матвеев), русские (Ахметов)
Режиссер: Квентин Тарантино
В ролях: Курт Рассел , Сэмюэл Л. Джексон , Тим Рот , Майкл Мэдсен , Дженнифер Джейсон Ли , Уолтон Гоггинс , Демиан Бишир , Брюс Дерн , Джеймс Паркс , Дэна Гурье , Зои Белл , Ли Хорсли
Описание:
США после Гражданской войны. Легендарный охотник за головами Джон Рут по кличке Вешатель конвоирует заключенную. По пути к ним прибиваются еще несколько путешественников. Снежная буря вынуждает компанию искать укрытие в лавке на отшибе, где уже расположилось весьма пестрое общество: генерал конфедератов, мексиканец, ковбой... И один из них - не тот, за кого себя выдает.

R - Лицам до 17 лет обязательно присутствие взрослого
Качество: BDRip-AVC
Контейнер (Расширение): MKV
Видео: 960x348, 1585 Кбит/сек, 23,976 кадр/сек, 0,198 Бит/[Пиксели*Кадры]
Аудио №1: русский / AC3 / 5.1 / 48 kHz / 448 kbps / 16 bit |AVO, Матвеев|
Аудио №2: русский / AC3 / 5.1 / 48 kHz / 448 kbps / 16 bit |AVO, Есарев|
Навигация по главам(Чаптеры): есть

Отдельно переводы Матвеева и Есарева (AC3 / 5.1 / 48 kHz / 640 kbps) Автор рипа: Сообщество:

Код:

Format                                   : Matroska
Format version                           : Version 2
File size                                : 2.91 GiB
Duration                                 : 2h 47mn
Overall bit rate                         : 2 483 Kbps
Movie name                               : The Hateful Eight.(2015).BDRip-AVC.[denis100]
Encoded date                             : UTC 2016-03-09 04:40:17
Writing application                      : mkvmerge v5.8.0 ('No Sleep / Pillow') built on Sep  2 2012 15:37:04
Writing library                          : libebml v1.2.3 + libmatroska v1.3.0

Video
ID                                       : 1
Format                                   : AVC
Format/Info                              : Advanced Video Codec
Format profile                           : High@L4.1
Format settings, CABAC                   : Yes
Format settings, ReFrames                : 11 frames
Codec ID                                 : V_MPEG4/ISO/AVC
Duration                                 : 2h 47mn
Bit rate                                 : 1 585 Kbps
Width                                    : 960 pixels
Height                                   : 348 pixels
Display aspect ratio                     : 2.759
Frame rate                               : 23.976 fps
Color space                              : YUV
Chroma subsampling                       : 4:2:0
Bit depth                                : 8 bits
Scan type                                : Progressive
Bits/(Pixel*Frame)                       : 0.198
Stream size                              : 1.80 GiB (62%)
Title                                    : The Hateful Eight.(2015).BDRip-AVC.[denis100]
Writing library                          : x264 core 148 r2665 a01e339
Encoding settings                        : cabac=1 / ref=11 / deblock=1:-3:-3 / analyse=0x3:0x133 / me=umh / subme=11 / psy=1 / psy_rd=1.00:0.10 / mixed_ref=1 / me_range=48 / chroma_me=1 / trellis=2 / 8x8dct=1 / cqm=0 / deadzone=21,11 / fast_pskip=0 / chroma_qp_offset=-3 / threads=6 / lookahead_threads=1 / sliced_threads=0 / nr=0 / decimate=1 / interlaced=0 / bluray_compat=0 / constrained_intra=0 / bframes=16 / b_pyramid=2 / b_adapt=2 / b_bias=0 / direct=3 / weightb=1 / open_gop=0 / weightp=2 / keyint=240 / keyint_min=23 / scenecut=40 / intra_refresh=0 / rc=2pass / mbtree=0 / bitrate=1585 / ratetol=1.0 / qcomp=0.60 / qpmin=0 / qpmax=69 / qpstep=4 / cplxblur=20.0 / qblur=0.5 / ip_ratio=1.40 / pb_ratio=1.30 / aq=1:0.90
Language                                 : English
Default                                  : Yes
Forced                                   : No

Audio #1
ID                                       : 2
Format                                   : AC-3
Format/Info                              : Audio Coding 3
Mode extension                           : CM (complete main)
Codec ID                                 : A_AC3
Duration                                 : 2h 47mn
Bit rate mode                            : Constant
Bit rate                                 : 448 Kbps
Channel(s)                               : 6 channels
Channel positions                        : Front: L C R, Side: L R, LFE
Sampling rate                            : 48.0 KHz
Bit depth                                : 16 bits
Compression mode                         : Lossy
Stream size                              : 538 MiB (18%)
Title                                    : AVO, Матвеев
Language                                 : Russian
Default                                  : Yes
Forced                                   : No

Audio #2
ID                                       : 3
Format                                   : AC-3
Format/Info                              : Audio Coding 3
Mode extension                           : CM (complete main)
Codec ID                                 : A_AC3
Duration                                 : 2h 47mn
Bit rate mode                            : Constant
Bit rate                                 : 448 Kbps
Channel(s)                               : 6 channels
Channel positions                        : Front: L C R, Side: L R, LFE
Sampling rate                            : 48.0 KHz
Bit depth                                : 16 bits
Compression mode                         : Lossy
Stream size                              : 538 MiB (18%)
Title                                    : AVO, Есарев
Language                                 : Russian
Default                                  : No
Forced                                   : No

Text #1
ID                                       : 4
Format                                   : UTF-8
Codec ID                                 : S_TEXT/UTF8
Codec ID/Info                            : UTF-8 Plain Text
Title                                    : Матвеев
Language                                 : Russian
Default                                  : No
Forced                                   : No

Text #2
ID                                       : 5
Format                                   : UTF-8
Codec ID                                 : S_TEXT/UTF8
Codec ID/Info                            : UTF-8 Plain Text
Title                                    : Ахметов
Language                                 : Russian
Default                                  : No
Forced                                   : No

Menu
00:00:00.000                             : en:Chapter 1
00:04:33.523                             : en:Chapter 2
00:11:36.111                             : en:Chapter 3
00:22:01.361                             : en:Chapter 4
00:35:02.431                             : en:Chapter 5
00:43:31.900                             : en:Chapter 6
00:52:12.211                             : en:Chapter 7
00:59:04.498                             : en:Chapter 8
01:08:30.314                             : en:Chapter 9
01:16:10.856                             : en:Chapter 10
01:25:18.445                             : en:Chapter 11
01:35:06.492                             : en:Chapter 12
01:42:20.175                             : en:Chapter 13
01:50:33.335                             : en:Chapter 14
01:59:32.497                             : en:Chapter 15
02:06:43.052                             : en:Chapter 16
02:13:26.622                             : en:Chapter 17
02:19:59.724                             : en:Chapter 18
02:24:17.022                             : en:Chapter 19
02:34:08.111                             : en:Chapter 20
02:39:38.025                             : en:Chapter 21
02:43:22.751                             : en:Chapter 22

x264 [info]: frame I:1733 Avg QP:12.32 size: 68808
x264 [info]: frame P:42334 Avg QP:14.82 size: 18015
x264 [info]: frame B:197268 Avg QP:17.50 size: 5640
x264 [info]: consecutive B-frames: 1.1% 0.9% 3.9% 9.9% 16.8% 35.2% 10.7% 5.8% 4.7% 2.7% 2.2% 2.0% 1.4% 1.2% 0.6%
piratbit.pw



Скачать Омерзительная восьмерка через торрент http://i75.fastpic.ru/big/2016/0309/2b/d3406bb3c6170da7155e0409ad6ed42b.png Скачать фильм Омерзительная восьмерка через торрент бесплантно в хорошем качестве Описание:США после Гражданской войны. Легендарный охотник за головами Джон Рут по кличке Вешатель конвоирует заключенную. По пути к ним ... 8.6 10 7
Info! Золотая раздача, скачанное не засчитывается.
Торрент: Зарегистрирован [2016-03-09 09:00] · скачан: 493 раз
Статус: √ проверено
Размер: 2.91 GB
Как cкачать? Как скачать Омерзительная восьмерка через торрент | UTorrent

% Раздел Тема Автор DL S | L
Фильмы (Blu-ray, BD-Remux, HDDVD) [ 65.73 GB ] Омерзительная восьмерка / The Hateful Eight [2015 BDRemux 1080p] DUB + 6xAVO sheker187 Скачать
1 | 0
Фильмы [HD 720p, 1080p] (Хороший звук DUB, MVO) [ 10.72 GB ] Омерзительная восьмёрка / The Hateful Eight [2015 BDRip-HEVC 1080p ] 4xAVO+DUB [] bober100 Скачать
1 | 0
Фильмы [HD 720p, 1080p] (Хороший звук DUB, MVO) [ 15.52 GB ] Омерзительная восьмерка / The Hateful Eight [2015 BDRip 720p] 2xDUB+MVO+3xAVO bober100 Скачать
1 | 0

28-11-2019 20:33  

Отключить всю рекламу на сайте

    Дорогой пользователь! Огромная просьба, поблагодарите релизера, оцените раздачу и оставьте свои комментарий, если Вы скачали Омерзительная восьмерка через торрент бесплатно! Внесите свою лепту в развитие PiratBit!
    Комментировать посты могут только пользователи прошедшие не сложную регистрацию
    Показать сообщения:    

    Омерзительная восьмерка через торрент
    Скачать бесплатно Омерзительная восьмерка
    Омерзительная восьмерка скачать торрент
    Омерзительная восьмерка смотреть онлайн
    Cкачать фильм Омерзительная восьмерка бесплатно
    Омерзительная восьмерка скачать торрент в хорошем качестве
    Омерзительная восьмерка смотреть онлайн бесплатно в хорошем качестве


    Вы не можете начинать темы
    Вы не можете отвечать на сообщения
    Вы не можете редактировать свои сообщения
    Вы не можете удалять свои сообщения
    Вы не можете голосовать в опросах
    Вы не можете прикреплять файлы к сообщениям
    Вы можете скачивать файлы