Ссылка на приватное зеркало всего за 1$. Внимание количество ограничено!!!

iTunes

1+1

iTunes

мы

MV0

1

WEB-DLRip

Джокер

Пифагор

Ведьмак / The Witcher сериал

iTunes

ПШазам

iTunes

Оно 2

iTunes

30
pack

Вам бонус

ВАЖНО

!!Акция!!

Alien_RageХит недели

RePack

Resident Evil 21

ИГРА 18+

pack

RePack

jed

!!Акция!!

Alien_Rage

RePack

fifa19

RePack

Assassins Creed: Odyssey

RePack

NEED FOR SPEED™ PAYBACK

4 сезон

9 сезон

Бесстыжие 9 сезон

Все сериалы

все сериалы на PB.wtf

RePack

FAR CRY 5
  

В сердце моря / In the Heart of the Sea (Рон Ховард) [2015, боевик, триллер, драма, BDRip-AVC, Дубляж] iTunes R.G.Resident piratbit.pw

В сердце моря через торрент piratbit.pw

Размер: 1.88 GB | Добавлен: 3 года 11 мес. назад | Торрент скачан:602 раза
Скачать  

02-03-2016 23:30 В сердце моря Скачать торрент  

В сердце моря / In the Heart of the Sea
««Based on the incredible true story that inspired Moby-Dick»»

Год выпуска: 2015
Страна: США, Австралия, Испания, Великобритания, Канада
Жанр: боевик, триллер, драма, приключения, биография, история
Продолжительность: 02:01:43
Перевод: Дубляж - [Лицензия / iTunes]
Субтитры: русские (Forced)
Режиссер: Рон Ховард
В ролях:

Крис Хемсворт (Owen Chase), Бенджамин Уокер (George Pollard), Киллиан Мёрфи (Matthew Joy), Брендан Глисон (Tom Nickerson), Бен Уишоу (Herman Melville), Мишель Фэйрли (Mrs. Nickerson), Том Холланд (Thomas Nickerson), Пол Андерсон (Caleb Chappel), Фрэнк Диллэйн (Henry Coffin), Джозеф Моул (Benjamin Lawrence), Эдвард Эшли (Barzillai Ray), Сэм Кили (Ramsdell)
Описание:
В 1819 году американский корабль «Эссекс» с командой из двух десятков человек на борту отправился из порта в штате Массачусетс на китобойный промысел. Осенью 1820-го успешная на протяжении полутора лет охота была прервана атакой гигантского кашалота на судно, в результате чего морякам пришлось пересесть в шлюпки. В течение трех с лишним месяцев они боролись за выживание посреди океана...
Мировая премьера: 2 декабря 2015

MPAA: PG-13 - Детям до 13 лет просмотр не желателен
Качество: BDRip-AVC Rip by schultz R.G.Resident
Формат: MKV
Видео: AVC, 1024x576 (16:9), 1829 kbps, 23,976 fps, 0,129 bpp
Аудио: русский / AC3 / 5.1 / 48 kHz / 384 kbps / 16 bit

Код:

General
Unique ID                                : 180602186682473786235101609442856903179 (0x87DEB7478A28EC6DBF474BF7345BA20B)
Complete name                            : D:\download\In.the.Heart.of.the.Sea.2015.BDRip-AVC by schultz R.G.Resident.mkv
Format                                   : Matroska
Format version                           : Version 4 / Version 2
File size                                : 1.88 GiB
Duration                                 : 2h 1mn
Overall bit rate                         : 2 212 Kbps
Encoded date                             : UTC 2016-03-02 23:05:50
Writing application                      : mkvmerge v6.7.0 ('Back to the Ground') 64bit built on Jan  8 2014 15:10:52
Writing library                          : libebml v1.3.0 + libmatroska v1.4.1
DURATION                                 : 01:53:39.494000000
NUMBER_OF_FRAMES                         : 36
NUMBER_OF_BYTES                          : 2095
_STATISTICS_WRITING_APP                  : mkvmerge v8.3.0 ('Over the Horizon') 64bit
_STATISTICS_WRITING_DATE_UTC             : 2016-03-02 19:08:17
_STATISTICS_TAGS                         : BPS DURATION NUMBER_OF_FRAMES NUMBER_OF_BYTES

Video
ID                                       : 1
Format                                   : AVC
Format/Info                              : Advanced Video Codec
Format profile                           : High@L4.1
Format settings, CABAC                   : Yes
Format settings, ReFrames                : 12 frames
Codec ID                                 : V_MPEG4/ISO/AVC
Duration                                 : 2h 1mn
Bit rate                                 : 1 829 Kbps
Width                                    : 1 024 pixels
Height                                   : 576 pixels
Display aspect ratio                     : 16:9
Frame rate                               : 23.976 fps
Color space                              : YUV
Chroma subsampling                       : 4:2:0
Bit depth                                : 8 bits
Scan type                                : Progressive
Bits/(Pixel*Frame)                       : 0.129
Stream size                              : 1.52 GiB (81%)
Writing library                          : x264 core 146 r2538 121396c
Encoding settings                        : cabac=1 / ref=12 / deblock=1:-3:-3 / analyse=0x3:0x113 / me=umh / subme=11 / psy=1 / psy_rd=1.00:0.00 / mixed_ref=1 / me_range=48 / chroma_me=1 / trellis=2 / 8x8dct=1 / cqm=0 / deadzone=21,11 / fast_pskip=0 / chroma_qp_offset=-2 / threads=12 / lookahead_threads=3 / sliced_threads=0 / nr=0 / decimate=1 / interlaced=0 / bluray_compat=0 / constrained_intra=0 / bframes=13 / b_pyramid=2 / b_adapt=2 / b_bias=0 / direct=3 / weightb=1 / open_gop=0 / weightp=2 / keyint=240 / keyint_min=23 / scenecut=40 / intra_refresh=0 / rc_lookahead=40 / rc=2pass / mbtree=1 / bitrate=1829 / ratetol=1.0 / qcomp=0.60 / qpmin=0 / qpmax=69 / qpstep=4 / cplxblur=20.0 / qblur=0.5 / vbv_maxrate=14000 / vbv_bufsize=14000 / nal_hrd=none / filler=0 / ip_ratio=1.40 / aq=1:1.00
Language                                 : English
Default                                  : Yes
Forced                                   : No

Audio
ID                                       : 2
Format                                   : AC-3
Format/Info                              : Audio Coding 3
Mode extension                           : CM (complete main)
Codec ID                                 : A_AC3
Duration                                 : 2h 1mn
Bit rate mode                            : Constant
Bit rate                                 : 384 Kbps
Channel(s)                               : 6 channels
Channel positions                        : Front: L C R, Side: L R, LFE
Sampling rate                            : 48.0 KHz
Bit depth                                : 16 bits
Compression mode                         : Lossy
Delay relative to video                  : 930ms
Stream size                              : 334 MiB (17%)
Language                                 : Russian
Default                                  : Yes
Forced                                   : No

Text
ID                                       : 3
Format                                   : UTF-8
Codec ID                                 : S_TEXT/UTF8
Codec ID/Info                            : UTF-8 Plain Text
Title                                    : Forced
Language                                 : Russian
Default                                  : Yes
Forced                                   : Yes

Menu
00:00:00.000                             : en:00:00:00.000
00:12:07.518                             : en:00:12:07.518
00:21:19.737                             : en:00:21:19.737
00:33:31.968                             : en:00:33:31.968
00:42:37.013                             : en:00:42:37.013
00:51:32.715                             : en:00:51:32.715
01:06:45.835                             : en:01:06:45.835
01:13:14.015                             : en:01:13:14.015
01:23:23.290                             : en:01:23:23.290
01:33:47.872                             : en:01:33:47.872
01:43:22.029                             : en:01:43:22.029
01:53:00.774                             : en:01:53:00.774



piratbit.pw



Скачать В сердце моря через торрент http://pic1.kartinco.top/images/10/ejpqs.jpg Скачать фильм В сердце моря через торрент бесплантно в хорошем качестве Описание: В 1819 году американский корабль «Эссекс» с командой из двух десятков человек на борту отправился из порта в штате Массачусетс на ... 9.3 10 19
Info! Золотая раздача, скачанное не засчитывается.
Торрент: Зарегистрирован [2016-03-02 23:30] · скачан: 602 раз
Статус: √ проверено
Размер: 1.88 GB
Как cкачать? Как скачать В сердце моря через торрент | qTorrent

28-11-2019 20:33  

Отключить всю рекламу на сайте

06-03-2016 06:02 В сердце моря Скачать торрент  

Итог: фильм понравился, немного не привычна сюжетная линия, которая идет на спад по завораживающим сценам, но история вполне выстроена. Очень явно показано противостояние людей состоящих в разных классах, и как опыт и знания не столь важны, когда ты имеешь высокий титул. Красивые эффектные сцены, которые вызовут сопереживание. Приятное послевкусие. Советую посмотреть.

8 из 10piratbit.pw



    Дорогой пользователь! Огромная просьба, поблагодарите релизера, оцените раздачу и оставьте свои комментарий, если Вы скачали В сердце моря через торрент бесплатно! Внесите свою лепту в развитие PiratBit!
    Комментировать посты могут только пользователи прошедшие не сложную регистрацию
    Показать сообщения:    

    В сердце моря через торрент
    Скачать бесплатно В сердце моря
    В сердце моря скачать торрент
    В сердце моря смотреть онлайн
    Cкачать фильм В сердце моря бесплатно
    В сердце моря скачать торрент в хорошем качестве
    В сердце моря смотреть онлайн бесплатно в хорошем качестве


    Вы не можете начинать темы
    Вы не можете отвечать на сообщения
    Вы не можете редактировать свои сообщения
    Вы не можете удалять свои сообщения
    Вы не можете голосовать в опросах
    Вы не можете прикреплять файлы к сообщениям
    Вы можете скачивать файлы