Ссылка на приватное зеркало нашего сайта всего за 1$. Внимание количество ограничено!!!

2 сезон

iTunes

iTunes

1

iTunes

iTunes

iTunes

WEBRip

iTunes

30
pack

Новость дня

ВАЖНО

!!Акция!!

Alien_RageХит недели

RePack

Horizon Zero Dawn

ИГРА 18+

pack

RePack

jed

!!Акция!!

Alien_Rage

RePack

fifa19

RePack

Assassins Creed: Odyssey

RePack

NEED FOR SPEED™ PAYBACK

4 сезон

9 сезон

Бесстыжие 9 сезон

Все сериалы

все сериалы на PB.wtf

RePack

FAR CRY 5
  

Афоня (Георгий Данелия) [1975 г., Комедия, BDRip (1080p)Оригинал] piratbit.pw

Афоня через торрент piratbit.pw

Размер: 6.33 GB | Добавлен: 4 года 6 мес. назад | Торрент скачан:145 раз
Скачать  

01-03-2016 14:31 Афоня Скачать торрент  

Афоня
Год выпуска: 1975
Страна: СССР
Жанр: Комедия
Продолжительность: 01:31:57
Перевод: Оригинал
Субтитры: Русские, английские

Режиссер: Георгий Данелия

В ролях: Леонид Куравлёв, Евгения Симонова, Евгений Леонов, Борислав Брондуков, Валентина Талызина, Владимир Басов, Николай Парфёнов, Готлиб Ронинсон, Нина Русланова, Раиса Куркина, Нина Маслова, Алексей Ванин, Савелий Крамаров, Николай Гринько, Николай Граббе, Тамара Совчи, Раднэр Муратов, Татьяна Распутина

Описание: Весело и беззаботно жил слесарь-сантехник Афанасий. Не гнушался левыми заработками, любил выпить, поволочиться за девушками. Так проходил день за днём, но однажды... О том, что случилось с Афоней, рассказывает фильм признанного мастера комедии Георгия Данелии ("Мимино", "Я шагаю по Москве", "Совсем пропащий", "Не горюй!", "Кин-дза-дза!").

Качество: BDRip (1080p)
Формат: MKV
Видео кодек: AVC
Аудио кодек: AC3-DTS
Видео: MPEG-4 AVC, (1488 x1080),7700 Кбит/с, 23.976 кадра/сек
Аудио#1: DTS, 6 ch,1509 kbps (Rus) 48.0 KHz Оригинал
Аудио#2: AC3, 6 ch,640 kbps (Rus) 48.0 KHz Оригинал
скриншот   скриншот   скриншот  

Тип потока: Видео
Длительность: 01:31:57
Кодек: AVC
Кодек/описание: Advanced Video Codec
Кодек/профиль: High@L4.1
Кодек/ID: V_MPEG4/ISO/AVC
Кодек/CABAC: Yes
Кодек/ReFrames: 4 frames
Размеры изображения: 1488 x 1080 (1.378)
Частота кадров: 23.976 fps
Частота кадров/тип: Constant
Размер потока: 4.82 GiB (76%)
Битрейт: 7 700 Kbps
Библиотека кодирования: x264 core 138 r2358 9e941d1
Цветовое пространство: YUV
Тип развёртки: Progressive
Колориметрия: 4:2:0
Глубина: 8 bits
Настройки кодирования: cabac=1 / ref=4 / deblock=1:-3:-3 / analyse=0x3:0x113 / me=umh / subme=11 / psy=1 / psy_rd=1.00:0.00 / mixed_ref=1 / me_range=32 / chroma_me=1 / trellis=2 / 8x8dct=1 / cqm=0 / deadzone=21,11 / fast_pskip=1 / chroma_qp_offset=-2 / threads=12 / lookahead_threads=1 / sliced_threads=0 / nr=0 / decimate=1 / interlaced=0 / bluray_compat=0 / constrained_intra=0 / bframes=5 / b_pyramid=2 / b_adapt=1 / b_bias=0 / direct=2 / weightb=1 / open_gop=0 / weightp=2 / keyint=240 / keyint_min=23 / scenecut=40 / intra_refresh=0 / rc_lookahead=40 / rc=2pass / mbtree=1 / bitrate=7700 / ratetol=1.0 / qcomp=0.60 / qpmin=10 / qpmax=51 / qpstep=4 / cplxblur=20.0 / qblur=0.5 / vbv_maxrate=62500 / vbv_bufsize=78125 / nal_hrd=none / ip_ratio=1.40 / aq=1:1.00 / zones=129356,132279,q=40
:
Тип потока: Звук #1
Язык: Russian
Длительность: 01:31:57.215
Кодек: DTS
Кодек/описание: Digital Theater Systems
Кодек/ID: A_DTS
Частота дискретизации: 48.0 KHz
Каналов: 6 channels
Битрейт: 1 509 Kbps
Битрейт/тип: Constant
Размер потока: 992 MiB (15%)
Глубина: 24 bits
Метод сжатия: Lossy
:
Тип потока: Звук #2
Язык: Russian
Длительность: 01:31:57.215
Кодек: AC-3
Кодек/описание: Audio Coding 3
Кодек/ID: A_AC3
Частота дискретизации: 48.0 KHz
Каналов: 6 channels
Битрейт: 640 Kbps
Битрейт/тип: Constant
Размер потока: 421 MiB (6%)
Глубина: 16 bits
Метод сжатия: Lossy
:
Тип потока: Субтитры #1
Язык: Russian
Формат: UTF-8
Формат/подробно: UTF-8 Plain Text
:
Тип потока: Субтитры #2
Язык: English
Формат: UTF-8
Формат/подробно: UTF-8 Plain Text

piratbit.pw



Скачать Афоня через торрент http://i74.fastpic.ru/big/2016/0301/fd/10bad6d32ce7d8f4d3985f4edd2549fd.jpg Скачать фильм Афоня через торрент бесплантно в хорошем качестве Описание: Весело и беззаботно жил слесарь-сантехник Афанасий. Не гнушался левыми заработками, любил выпить, поволочиться за девушками. Так ... 9.5 10 22
Info! Золотая раздача, скачанное не засчитывается.
Торрент: Зарегистрирован [2016-03-01 14:31] · скачан: 145 раз
Статус: √ проверено
Размер: 6.33 GB
Как cкачать? Как скачать Афоня через торрент | qTorrent

% Раздел Тема Автор DL S | L
Документальные фильмы и телепередачи [ 2.65 GB ] Леонид Куравлев. Афоня и другие [2016 Документальный HDTV Оригинальный] Бумер Скачать
1 | 0
Политика, религия [ 777 MB ] Афон. Восхождение [2016 документальный DVB Оригинальный] кэп Скачать
1 | 0
Наши фильмы (Blu-ray, BD-Remux, HDDVD) [ 14.91 GB ] Афоня [1975 BD-Remux Оригинал] Бумер Скачать
1 | 0
Политика, религия [ 411 MB ] Духовные подвиги послушников святого Афона [2014 документальный WEBRip Оригинал] metanoia Скачать
1 | 0
Наши фильмы (Blu-ray, BD-Remux, HDDVD) [ 22 GB ] Афоня [1975 Blu-ray Оригинал] Бумер Скачать
1 | 0
Документальные фильмы и телепередачи [ 768 MB ] Снова на Афоне [2007 документальный DVDRip Оригинал] metanoia Скачать
1 | 0
Политика, религия [ 700 MB ] Снова на Афоне [2007 документальный DVDRip Оригинал] metanoia Скачать
1 | 0

28-11-2019 20:33  

Отключить всю рекламу на сайте

01-03-2016 15:20 Афоня Скачать торрент  

милай чо, а я ничо..
классика)
трек вообще обалденный, настоящий советский психоделик..

скачивать не буду, но спасибо выражу piratbit.pw



01-03-2016 15:47 Афоня Скачать торрент  

недавно столкнулся с таким "Афоней" piratbit.pw



01-03-2016 16:19 Афоня Скачать торрент  

работал таким афонейpiratbit.pw



01-03-2016 16:22 Афоня Скачать торрент  

plexan писал(а):

работал таким афоней

тоже работал )))piratbit.pw



01-03-2016 18:58 Афоня Скачать торрент  

таких уже нет... к сожалению-простых без двойного днаpiratbit.pw



01-03-2016 19:03 Афоня Скачать торрент  

ElMarK писал(а):

милай чо, а я ничо..
классика)
трек вообще обалденный, настоящий советский психоделик..

скачивать не буду, но спасибо выражу

А я скачаю)piratbit.pw



01-03-2016 19:31 Афоня Скачать торрент  

legenda_fan писал(а):

ElMarK писал(а):

милай чо, а я ничо..
классика)
трек вообще обалденный, настоящий советский психоделик..

скачивать не буду, но спасибо выражу

А я скачаю)

и я скачаю приколюсь на выходных, спасибо автору..) piratbit.pw



    Дорогой пользователь! Огромная просьба, поблагодарите релизера, оцените раздачу и оставьте свои комментарий, если Вы скачали Афоня через торрент бесплатно! Внесите свою лепту в развитие PiratBit!
    Комментировать посты могут только пользователи прошедшие не сложную регистрацию
    Показать сообщения:    

    Афоня через торрент
    Скачать бесплатно Афоня
    Афоня скачать торрент
    Афоня смотреть онлайн
    Cкачать фильм Афоня бесплатно
    Афоня скачать торрент в хорошем качестве
    Афоня смотреть онлайн бесплатно в хорошем качестве


    Вы не можете начинать темы
    Вы не можете отвечать на сообщения
    Вы не можете редактировать свои сообщения
    Вы не можете удалять свои сообщения
    Вы не можете голосовать в опросах
    Вы не можете прикреплять файлы к сообщениям
    Вы можете скачивать файлы