Ссылка на приватное зеркало всего за 1$. Внимание количество ограничено!!!

iTunes

1+1

iTunes

мы

MV0

1

WEB-DLRip

Джокер

Пифагор

Ведьмак / The Witcher сериал

iTunes

ПШазам

iTunes

Оно 2

iTunes

30
pack

Вам бонус

ВАЖНО

!!Акция!!

Alien_RageХит недели

RePack

Resident Evil 21

ИГРА 18+

pack

RePack

jed

!!Акция!!

Alien_Rage

RePack

fifa19

RePack

Assassins Creed: Odyssey

RePack

NEED FOR SPEED™ PAYBACK

4 сезон

9 сезон

Бесстыжие 9 сезон

Все сериалы

все сериалы на PB.wtf

RePack

FAR CRY 5
  

В центре внимания / Spotlight (Том МакКарти) [2015, триллер, драма, биография, BDRip-AVC, Профессиональный многоголосый [Лицензия / iTunes] R.G.Resident piratbit.pw

В центре внимания через торрент piratbit.pw

Размер: 2.17 GB | Добавлен: 4 года назад | Торрент скачан:404 раза
Скачать  

21-02-2016 06:06 В центре внимания Скачать торрент  

В центре внимания / Spotlight
««Break the story. Break the silence»»

Год выпуска: 2015
Страна: США, Канада
Жанр: триллер, драма, биография, история
Продолжительность: 02:09:08
Перевод: Профессиональный многоголосый [Лицензия / iTunes]
Режиссер: Том МакКарти
В ролях:

Марк Руффало (Mike Rezendes), Майкл Китон (Walter «Robby» Robinson), Рэйчел МакАдамс (Sacha Pfeiffer), Лив Шрайбер (Marty Baron), Джон Слэттери (Ben Bradlee Jr.), Стэнли Туччи (Mitchell Garabedian), Брайан Д’Арси Джеймс (Matt Carroll), Елена Стайтелер (Barbara), Джин Аморозо (Steve Kurkjian), Даг Мюррэй (Peter Canellos), Шэрон МакФарлэйн (Helen Donovan), Джейми Шеридан (Jim Sullivan)
Описание:
Основанная на реальных событиях история журналистского расследования одного из самых громких в истории США секс-скандалов. Корреспонденты бостонской газеты разоблачают случаи педофилии, в которых обвиняются представители Церкви...
Мировая премьера: 3 сентября 2015

MPAA: R - Лицам до 17 лет обязательно присутствие взрослого
Качество: BDRip-AVC Rip by schultz R.G.Resident
Формат: MKV
Видео: AVC, 1024x552 (1.855), 2030 kbps, 23,976 fps, 0,150 bpp
Аудио: русский / AC3 / 5.1 / 48 kHz / 384 kbps / 16 bit

Код:

General
Unique ID                                : 185876335073214467601480855116928865939 (0x8BD67ADF1ECD5D9285C1F13BF69D5693)
Complete name                            : D:\download\Spotlight.2015.BDRip-AVC by schultz R.G.Resident.mkv
Format                                   : Matroska
Format version                           : Version 2
File size                                : 2.17 GiB
Duration                                 : 2h 9mn
Overall bit rate                         : 2 403 Kbps
Encoded date                             : UTC 2016-02-21 05:29:54
Writing application                      : mkvmerge v7.8.0 ('River Man') 32bit built on Apr  3 2015 12:11:22
Writing library                          : libebml v1.3.1 + libmatroska v1.4.2

Video
ID                                       : 1
Format                                   : AVC
Format/Info                              : Advanced Video Codec
Format profile                           : High@L4.1
Format settings, CABAC                   : Yes
Format settings, ReFrames                : 12 frames
Codec ID                                 : V_MPEG4/ISO/AVC
Duration                                 : 2h 9mn
Bit rate                                 : 2 030 Kbps
Width                                    : 1 024 pixels
Height                                   : 552 pixels
Display aspect ratio                     : 1.855
Frame rate                               : 23.976 fps
Color space                              : YUV
Chroma subsampling                       : 4:2:0
Bit depth                                : 8 bits
Scan type                                : Progressive
Bits/(Pixel*Frame)                       : 0.150
Stream size                              : 1.78 GiB (82%)
Writing library                          : x264 core 146 r2538 121396c
Encoding settings                        : cabac=1 / ref=12 / deblock=1:-3:-3 / analyse=0x3:0x113 / me=umh / subme=11 / psy=1 / psy_rd=1.00:0.00 / mixed_ref=1 / me_range=48 / chroma_me=1 / trellis=2 / 8x8dct=1 / cqm=0 / deadzone=21,11 / fast_pskip=0 / chroma_qp_offset=-2 / threads=12 / lookahead_threads=3 / sliced_threads=0 / nr=0 / decimate=1 / interlaced=0 / bluray_compat=0 / constrained_intra=0 / bframes=13 / b_pyramid=2 / b_adapt=2 / b_bias=0 / direct=3 / weightb=1 / open_gop=0 / weightp=2 / keyint=240 / keyint_min=23 / scenecut=40 / intra_refresh=0 / rc_lookahead=40 / rc=2pass / mbtree=1 / bitrate=2030 / ratetol=1.0 / qcomp=0.60 / qpmin=0 / qpmax=69 / qpstep=4 / cplxblur=20.0 / qblur=0.5 / vbv_maxrate=14000 / vbv_bufsize=14000 / nal_hrd=none / filler=0 / ip_ratio=1.40 / aq=1:1.00
Default                                  : Yes
Forced                                   : No

Audio
ID                                       : 2
Format                                   : AC-3
Format/Info                              : Audio Coding 3
Mode extension                           : CM (complete main)
Codec ID                                 : A_AC3
Duration                                 : 2h 9mn
Bit rate mode                            : Constant
Bit rate                                 : 384 Kbps
Channel(s)                               : 6 channels
Channel positions                        : Front: L C R, Side: L R, LFE
Sampling rate                            : 48.0 KHz
Bit depth                                : 16 bits
Compression mode                         : Lossy
Stream size                              : 355 MiB (16%)
Language                                 : Russian
Default                                  : Yes
Forced                                   : No


piratbit.pw



Скачать В центре внимания через торрент http://pic1.kartinco.top/images/10/ejpqs.jpg Скачать фильм В центре внимания через торрент бесплантно в хорошем качестве Описание: Основанная на реальных событиях история журналистского расследования одного из самых громких в истории США секс-скандалов. ... 10 10 7
Info! Золотая раздача, скачанное не засчитывается.
Торрент: Зарегистрирован [2016-02-21 06:06] · скачан: 404 раз
Статус: √ проверено
Размер: 2.17 GB
Как cкачать? Как скачать В центре внимания через торрент | qTorrent

28-11-2019 20:33  

Отключить всю рекламу на сайте

    Дорогой пользователь! Огромная просьба, поблагодарите релизера, оцените раздачу и оставьте свои комментарий, если Вы скачали В центре внимания через торрент бесплатно! Внесите свою лепту в развитие PiratBit!
    Комментировать посты могут только пользователи прошедшие не сложную регистрацию
    Показать сообщения:    

    В центре внимания через торрент
    Скачать бесплатно В центре внимания
    В центре внимания скачать торрент
    В центре внимания смотреть онлайн
    Cкачать фильм В центре внимания бесплатно
    В центре внимания скачать торрент в хорошем качестве
    В центре внимания смотреть онлайн бесплатно в хорошем качестве


    Вы не можете начинать темы
    Вы не можете отвечать на сообщения
    Вы не можете редактировать свои сообщения
    Вы не можете удалять свои сообщения
    Вы не можете голосовать в опросах
    Вы не можете прикреплять файлы к сообщениям
    Вы можете скачивать файлы