1 сезон

1 сезон

iTunes

1

КиноПоиск HD

Кинопоиск HD

iTunes

13

1 сезон

RePack

30

Ultimate

ВАЖНО

ИГРА 18+

pack

RePack

MK11
pack

Легкие деньги

RePack

jed

RePack

fifa19

RePack

RDR2

RePack

NEED FOR SPEED™ PAYBACK

4 сезон

9 сезон

Бесстыжие 9 сезон

Все сериалы

все сериалы на PB.wtf

RePack

FAR CRY 5
  
Magnet ссылка

Король-лягушонок / Der Froschkonig (Франциска Бух / Franziska Buch) [2008, Германия, фэнтези, мелодрама, семейный, BDRip by keeper.52) AVO (Ю.Сербин) piratbit.pw

Король-лягушонок через торрент piratbit.pw

Размер: 1.09 GB | Добавлен: 5 лет 2 мес. назад | Торрент скачан:4 раза
Скачать  

19-02-2016 12:14 Король-лягушонок Скачать торрент  

Король-лягушонок / Der Froschkönig
Страна: Германия / Bavaria Filmverleih- und Produktions GmbH, Südwestrundfunk (SWR)

Жанр: фэнтези, мелодрама, семейный
Год выпуска: 2008
Продолжительность: 01:04:09

Перевод: Авторский (одноголосый) Юрий Сербин
Cубтитры: нет
Оригинальная аудиодорожка: немецкий

Режиссер: Франциска Бух / Franziska Buch

В ролях: Сидони фон Кросигк, Фридрих фон Тун, Рихи Мюллер, Александр Мербет, Мари-Луиза Стал, Янина Штоппер, Джоана Мендл-Финк, Джоанна Лейнен, Мориц Шульц, Джонатан Бек...

Описание: Однажды прекрасная принцесса пошла к пруду поиграть со своим золотым мячиком. Случайно мячик упал в пруд и утонул. Помочь опечаленной девушке вызвался живущий в пруду лягушонок, получивший взамен обещание дружить с ним. Принцесса и подумать не могла, что лягушонок явится во дворец и потребует выполнения обещания, ведь мало какой девушке будет приятно общение с таким другом…



Качество: BDRip / Blu-ray 1080i
Формат: AVI

Видео: 720x528 (4:3), XviD 2029 Кбит/сек / 25.000 fps / Бит/(Пиксели*Кадры) : 0.214
Аудио 1: 48 kHz, Dolby AC3, 2 ch, 192 kbps, русский
Аудио 2: 48 kHz, Dolby AC3, 2 ch, 192 kbps, немецкий

Дополнительно: На оригинальную дорожку наложен чистый голос перевода Юрия Сербина.

Раздача от:
General
Format : AVI
Format/Info : Audio Video Interleave
File size : 1.09 GiB
Duration : 1h 4mn
Overall bit rate : 2 428 Kbps
Writing application : VirtualDubMod 1.5.10.3 (build 2550/release)
Writing library : VirtualDubMod build 2550/release

Video
ID : 0
Format : MPEG-4 Visual
Format profile : Advanced Simple@L5
Format settings, BVOP : 1
Format settings, QPel : No
Format settings, GMC : No warppoints
Format settings, Matrix : Custom
Codec ID : XVID
Codec ID/Hint : XviD
Duration : 1h 4mn
Bit rate : 2 029 Kbps
Width : 720 pixels
Height : 528 pixels
Display aspect ratio : 4:3
Frame rate : 25.000 fps
Color space : YUV
Chroma subsampling : 4:2:0
Bit depth : 8 bits
Scan type : Progressive
Compression mode : Lossy
Bits/(Pixel*Frame) : 0.214
Stream size : 931 MiB (84%)
Writing library : XviD 73

Audio #1
ID : 1
Format : AC-3
Format/Info : Audio Coding 3
Format profile : Dolby Digital
Mode extension : CM (complete main)
Format settings, Endianness : Big
Codec ID : 2000
Duration : 1h 4mn
Bit rate mode : Constant
Bit rate : 192 Kbps
Channel(s) : 2 channels
Channel positions : Front: L R
Sampling rate : 48.0 KHz
Frame rate : 31.250 fps (1536 spf)
Compression mode : Lossy
Stream size : 88.1 MiB (8%)
Alignment : Split accross interleaves
Interleave, duration : 40 ms (1.00 video frame)
Interleave, preload duratio : 500 ms

Audio #2
ID : 2
Format : AC-3
Format/Info : Audio Coding 3
Format profile : Dolby Digital
Mode extension : CM (complete main)
Format settings, Endianness : Big
Codec ID : 2000
Duration : 1h 4mn
Bit rate mode : Constant
Bit rate : 192 Kbps
Channel(s) : 2 channels
Channel positions : Front: L R
Sampling rate : 48.0 KHz
Frame rate : 31.250 fps (1536 spf)
Compression mode : Lossy
Stream size : 88.1 MiB (8%)
Alignment : Split accross interleaves
Interleave, duration : 40 ms (1.00 video frame)
Interleave, preload duratio : 500 ms
piratbit.pw



Скачать Король-лягушонок через торрент http://s019.radikal.ru/i606/1602/95/55ab44689cc3.jpg Скачать фильм Король-лягушонок через торрент бесплантно в хорошем качестве Описание: Однажды прекрасная принцесса пошла к пруду поиграть со своим золотым мячиком. Случайно мячик упал в пруд и утонул. Помочь ... 10 10 2
Info! Золотая раздача, скачанное не засчитывается.
Торрент: Зарегистрирован [2016-02-19 12:14] · скачан: 4 раз
Статус: √ проверено
Размер: 1.09 GB
Как cкачать? Как скачать Король-лягушонок через торрент | UTorrent

% Раздел Тема Автор DL S | L
Фильмы с авторской озвучкой [ 1.09 GB ] Король-лягушонок / Der Froschkonig [2008 Германия BDRip-AVC by keeper.52) AVO keeper.52 Скачать
1 | 0

28-11-2019 20:33  

Отключить всю рекламу на сайте

    Дорогой пользователь! Огромная просьба, поблагодарите релизера, оцените раздачу и оставьте свои комментарий, если Вы скачали Король-лягушонок через торрент бесплатно! Внесите свою лепту в развитие PiratBit!
    Комментировать посты могут только пользователи прошедшие не сложную регистрацию
    Показать сообщения:    

    Король-лягушонок через торрент
    Скачать бесплатно Король-лягушонок
    Король-лягушонок скачать торрент
    Король-лягушонок смотреть онлайн
    Cкачать фильм Король-лягушонок бесплатно
    Король-лягушонок скачать торрент в хорошем качестве
    Король-лягушонок смотреть онлайн бесплатно в хорошем качестве


    Вы не можете начинать темы
    Вы не можете отвечать на сообщения
    Вы не можете редактировать свои сообщения
    Вы не можете удалять свои сообщения
    Вы не можете голосовать в опросах
    Вы не можете прикреплять файлы к сообщениям
    Вы можете скачивать файлы