Ссылка на приватное зеркало нашего сайта всего за 1$. Внимание количество ограничено!!!

2 сезон

iTunes

iTunes

1

iTunes

iTunes

iTunes

WEBRip

iTunes

30
pack

Вам бонус

ВАЖНО

!!Акция!!

Alien_RageХит недели

RePack

Horizon Zero Dawn

ИГРА 18+

pack

RePack

jed

!!Акция!!

Alien_Rage

RePack

fifa19

RePack

Assassins Creed: Odyssey

RePack

NEED FOR SPEED™ PAYBACK

4 сезон

9 сезон

Бесстыжие 9 сезон

Все сериалы

все сериалы на PB.wtf

RePack

FAR CRY 5
  

Статус: Свободен (Павел Руминов) [2015, комедия, мелодрама, WEB-DL 1080p, [Русский] [iTunes] piratbit.pw

Статус: Свободен через торрент piratbit.pw

Размер: 3.3 GB | Добавлен: 4 года 7 мес. назад | Торрент скачан:1367 раз
Скачать  

18-02-2016 20:40 Статус: Свободен Скачать торрент  


Статус: Свободен


ИНФОРМАЦИЯ:
Год выпуска:2015
Страна: Россия
Жанр: комедия, мелодрама
Продолжительность: 01:38:48
Перевод: Не требуется [Русский] [iTunes]
Режиссер: Павел Руминов

В Ролях:


Данила Козловский (Никита Колесников), Елизавета Боярская (Афина Гордеева), Владимир Селезнев (Алексей Ярцев), Игорь Войнаровский (Вадик), Наталья Анисимова (Валли), Паулина Андреева (Соня Шмуль), Надежда Звенигородская (мама Никиты), Милош Руминов (Никита в детстве), Михаил Крылов (продюсер Крылов), Катрин Асси, Дарья Арефьева, Мария Староторжская (дама на корпоративе)

Описание:
Никита и Афина - идеальная пара... Как палочки Твикс. Как Бред Питт и Анджелина Джоли. Но... только по мнению Никиты. Внезапно Афина сообщает, что уходит от него. Причем - к 40-летнему стоматологу. Никита не согласен с таким поворотом судьбы и обещает Афине, что вернет ее за неделю. Что готов сделать отчаянный стэндапер, чтобы вернуть свою любовь?

  • Мировая премьера:21 января 2016

    ТЕХ.ДАННЫЕ:
    Качество: WEB-DL 1080p
    Формат: MKV
    Видео: AVC, 1920x804 (2.40:1), 4306 kbps, 24 fps, 0,116 bpp
    Аудио: русский / AC3 / 5.1 / 48 kHz / 384 kbps / 16 bit ||
    Навигация по главам: есть


    General
    Unique ID : 177009459079292525182951512734688173401 (0x852AC821F39946EF8C84C88F01915D59)
    Complete name : D:\Торенты\Ctatyc.CB060deH.2016.O.WEB-DL.1080p.mkv
    Format : Matroska
    Format version : Version 4 / Version 2
    File size : 3.30 GiB
    Duration : 1h 38mn
    Overall bit rate : 4 786 Kbps
    Encoded date : UTC 2016-02-18 19:14:56
    Writing application : mkvmerge v8.3.0 ('Over the Horizon') 64bit
    Writing library : libebml v1.3.1 + libmatroska v1.4.2

    Video
    ID : 1
    Format : AVC
    Format/Info : Advanced Video Codec
    Format profile : High@L4.0
    Format settings, CABAC : Yes
    Format settings, ReFrames : 5 frames
    Codec ID : V_MPEG4/ISO/AVC
    Duration : 1h 38mn
    Bit rate : 4 307 Kbps
    Width : 1 920 pixels
    Height : 804 pixels
    Display aspect ratio : 2.40:1
    Frame rate : 24.000 fps
    Color space : YUV
    Chroma subsampling : 4:2:0
    Bit depth : 8 bits
    Scan type : Progressive
    Bits/(Pixel*Frame) : 0.116
    Stream size : 2.97 GiB (90%)
    Language : English
    Default : Yes
    Forced : No
    Color primaries : BT.709-5, BT.1361, IEC 61966-2-4, SMPTE RP177
    Transfer characteristics : BT.709-5, BT.1361
    Matrix coefficients : BT.709-5, BT.1361, IEC 61966-2-4 709, SMPTE RP177

    Audio
    ID : 2
    Format : AC-3
    Format/Info : Audio Coding 3
    Mode extension : CM (complete main)
    Codec ID : A_AC3
    Duration : 1h 38mn
    Bit rate mode : Constant
    Bit rate : 384 Kbps
    Channel(s) : 6 channels
    Channel positions : Front: L C R, Side: L R, LFE
    Sampling rate : 48.0 KHz
    Bit depth : 16 bits
    Compression mode : Lossy
    Stream size : 271 MiB (8%)
    Language : Russian
    Default : Yes
    Forced : No

    Menu
    00:00:00.000 : en:Глава 1
    00:07:17.458 : en:Глава 2
    00:12:47.666 : en:Глава 3
    00:19:18.749 : en:Глава 4
    00:25:54.999 : en:Глава 5
    00:30:58.832 : en:Глава 6
    00:37:33.373 : en:Глава 7
    00:42:50.914 : en:Глава 8
    00:48:59.664 : en:Глава 9
    00:54:10.747 : en:Глава 10
    01:00:01.663 : en:Глава 11
    01:05:25.413 : en:Глава 12
    01:10:46.371 : en:Глава 13
    01:16:50.912 : en:Глава 14
    01:23:10.828 : en:Глава 15
    01:28:25.911 : en:Глава 16
    Скриншоты:

    © Оформление by .::Ворон::.
    piratbit.pw



  • Скачать Статус: Свободен через торрент http://pic.kartinco.top/images/6/ordi9.jpg Скачать фильм Статус: Свободен через торрент бесплантно в хорошем качестве Описание: Никита и Афина - идеальная пара... Как палочки Твикс. Как Бред Питт и Анджелина Джоли. Но... только по мнению Никиты. Внезапно ... 9 10 21
    Info! Золотая раздача, скачанное не засчитывается.
    Торрент: Зарегистрирован [2016-02-18 20:40] · скачан: 1 367 раз
    Статус: √ проверено
    Размер: 3.3 GB
    Как cкачать? Как скачать Статус: Свободен через торрент | qTorrent

    % Раздел Тема Автор DL S | L
    Наши фильмы (HD, WEB-DL 720p, 1080p) [ 3.08 GB ] Статус: Свободен [2015 WEB-DL 720p] smaster Скачать
    1 | 0
    Наши новые фильмы 2016 [ 1.46 GB ] Статус: Свободен [2016 WEB-DLRip / ] MihailHD Скачать
    1 | 0
    R.G. Resident & PiratVoice - Фильмы, Видео [ 1.46 GB ] Статус: Свободен [2015 WEB-DLRip-AVC Оригинальный R.G.Resident schultz Скачать
    1 | 0

    28-11-2019 20:33  

    Отключить всю рекламу на сайте

    18-02-2016 20:47 Статус: Свободен Скачать торрент  



    piratbit.pw



    19-02-2016 15:44 Статус: Свободен Скачать торрент  

    Фильм еще интересны до половины, под конец такая лабуда пошла..перемотал и концовку глянул. 5/10piratbit.pw



    08-03-2016 12:52 Статус: Свободен Скачать торрент  

    Прикольный фильм, мне понравился, не шедевр конечно, но на 8/10 смотрится.piratbit.pw



      Дорогой пользователь! Огромная просьба, поблагодарите релизера, оцените раздачу и оставьте свои комментарий, если Вы скачали Статус: Свободен через торрент бесплатно! Внесите свою лепту в развитие PiratBit!
      Комментировать посты могут только пользователи прошедшие не сложную регистрацию
      Показать сообщения:    

      Статус: Свободен через торрент
      Скачать бесплатно Статус: Свободен
      Статус: Свободен скачать торрент
      Статус: Свободен смотреть онлайн
      Cкачать фильм Статус: Свободен бесплатно
      Статус: Свободен скачать торрент в хорошем качестве
      Статус: Свободен смотреть онлайн бесплатно в хорошем качестве


      Вы не можете начинать темы
      Вы не можете отвечать на сообщения
      Вы не можете редактировать свои сообщения
      Вы не можете удалять свои сообщения
      Вы не можете голосовать в опросах
      Вы не можете прикреплять файлы к сообщениям
      Вы можете скачивать файлы