Ссылка на приватное зеркало всего за 1$. Внимание количество ограничено!!!

iTunes

1+1

iTunes

мы

MV0

1

WEB-DLRip

Джокер

Пифагор

Ведьмак / The Witcher сериал

iTunes

ПШазам

iTunes

Оно 2

iTunes

30
pack

Вам бонус

ВАЖНО

!!Акция!!

Alien_RageХит недели

RePack

Resident Evil 21

ИГРА 18+

pack

RePack

jed

!!Акция!!

Alien_Rage

RePack

fifa19

RePack

Assassins Creed: Odyssey

RePack

NEED FOR SPEED™ PAYBACK

4 сезон

9 сезон

Бесстыжие 9 сезон

Все сериалы

все сериалы на PB.wtf

RePack

FAR CRY 5
  

Комната / Room (Леонард Абрахамсон) [2015, драма, BDRip-AVC, Авторский (одноголосый) А.Матвеев] R.G.Resident piratbit.pw

Комната через торрент piratbit.pw

Размер: 1.46 GB | Добавлен: 4 года назад | Торрент скачан:172 раза
Скачать  

18-02-2016 05:18 Комната Скачать торрент  

Комната / Room
««Love knows no boundaries»»

Год выпуска: 2015
Страна: Ирландия, Канада
Жанр: драма
Продолжительность: 01:57:38
Перевод: Авторский (одноголосый) А.Матвеев
Режиссер: Леонард Абрахамсон
В ролях:

Бри Ларсон (Ma), Джейкоб Тремблэ (Jack), Шон Бриджерс (Old Nick), Венди Крюсон (Talk Show Hostess), Сэнди МакМастер (Veteran), Мэтт Гордон (Doug), Аманда Бругел (Officer Parker), Джо Пинг (Officer Grabowski), Джоан Аллен (Nancy), Заррин Дарнелл-Мартин (Attending Doctor), Кэс Анвар (Dr. Mittal), Уильям Х. Мэйси (Robert)
Описание:
Девушку по имени Ма похитили, когда она была еще подростком. С тех пор бедняга живет в крохотной комнатке вместе со своим 5-летним сыном Джеком. Мальчик при этом ничего кроме этой комнаты не видел, он в ней родился и ни разу ее не покидал.
Мировая премьера: 4 сентября 2015

MPAA: R - Лицам до 17 лет обязательно присутствие взрослого
Качество: BDRip-AVC Rip by schultz R.G.Resident
Формат: MKV
Видео: AVC, 1024x426 (2.40:1), 1552 kbps, 23,976 fps, 0,148 bpp
Аудио: AC3 / 2.0 / 48 kHz / 224 kbps / 16 bit

Код:

General
Unique ID                                : 201822071159797712068571142685280147907 (0x97D5845BFAAA3646B384C890C0BF99C3)
Complete name                            : D:\download\Room.2015.BDRip-AVC by schultz R.G.Resident.mkv
Format                                   : Matroska
Format version                           : Version 2
File size                                : 1.46 GiB
Duration                                 : 1h 57mn
Overall bit rate                         : 1 776 Kbps
Encoded date                             : UTC 2016-02-18 00:28:05
Writing application                      : mkvmerge v7.8.0 ('River Man') 32bit built on Apr  3 2015 12:11:22
Writing library                          : libebml v1.3.1 + libmatroska v1.4.2

Video
ID                                       : 1
Format                                   : AVC
Format/Info                              : Advanced Video Codec
Format profile                           : High@L4.1
Format settings, CABAC                   : Yes
Format settings, ReFrames                : 12 frames
Codec ID                                 : V_MPEG4/ISO/AVC
Duration                                 : 1h 57mn
Bit rate                                 : 1 552 Kbps
Width                                    : 1 024 pixels
Height                                   : 426 pixels
Display aspect ratio                     : 2.40:1
Frame rate                               : 23.976 fps
Color space                              : YUV
Chroma subsampling                       : 4:2:0
Bit depth                                : 8 bits
Scan type                                : Progressive
Bits/(Pixel*Frame)                       : 0.148
Stream size                              : 1.25 GiB (85%)
Writing library                          : x264 core 146 r2538 121396c
Encoding settings                        : cabac=1 / ref=12 / deblock=1:-3:-3 / analyse=0x3:0x113 / me=umh / subme=11 / psy=1 / psy_rd=1.00:0.00 / mixed_ref=1 / me_range=48 / chroma_me=1 / trellis=2 / 8x8dct=1 / cqm=0 / deadzone=21,11 / fast_pskip=0 / chroma_qp_offset=-2 / threads=12 / lookahead_threads=3 / sliced_threads=0 / nr=0 / decimate=1 / interlaced=0 / bluray_compat=0 / constrained_intra=0 / bframes=13 / b_pyramid=2 / b_adapt=2 / b_bias=0 / direct=3 / weightb=1 / open_gop=0 / weightp=2 / keyint=240 / keyint_min=23 / scenecut=40 / intra_refresh=0 / rc_lookahead=40 / rc=2pass / mbtree=1 / bitrate=1552 / ratetol=1.0 / qcomp=0.60 / qpmin=0 / qpmax=69 / qpstep=4 / cplxblur=20.0 / qblur=0.5 / vbv_maxrate=14000 / vbv_bufsize=14000 / nal_hrd=none / filler=0 / ip_ratio=1.40 / aq=1:1.00
Default                                  : Yes
Forced                                   : No

Audio
ID                                       : 2
Format                                   : AC-3
Format/Info                              : Audio Coding 3
Mode extension                           : CM (complete main)
Codec ID                                 : A_AC3
Duration                                 : 1h 57mn
Bit rate mode                            : Constant
Bit rate                                 : 224 Kbps
Channel(s)                               : 2 channels
Channel positions                        : Front: L R
Sampling rate                            : 48.0 KHz
Bit depth                                : 16 bits
Compression mode                         : Lossy
Stream size                              : 188 MiB (13%)
Default                                  : Yes
Forced                                   : No


piratbit.pw



Скачать Комната через торрент http://pic1.kartinco.top/images/10/ejpqs.jpg Скачать фильм Комната через торрент бесплантно в хорошем качестве Описание: Девушку по имени Ма похитили, когда она была еще подростком. С тех пор бедняга живет в крохотной комнатке вместе со своим ... 10 10 3
Info! Золотая раздача, скачанное не засчитывается.
Торрент: Зарегистрирован [2016-02-18 05:18] · скачан: 172 раз
Статус: √ проверено
Размер: 1.46 GB
Как cкачать? Как скачать Комната через торрент | qTorrent

28-11-2019 20:33  

Отключить всю рекламу на сайте

    Дорогой пользователь! Огромная просьба, поблагодарите релизера, оцените раздачу и оставьте свои комментарий, если Вы скачали Комната через торрент бесплатно! Внесите свою лепту в развитие PiratBit!
    Комментировать посты могут только пользователи прошедшие не сложную регистрацию
    Показать сообщения:    

    Комната через торрент
    Скачать бесплатно Комната
    Комната скачать торрент
    Комната смотреть онлайн
    Cкачать фильм Комната бесплатно
    Комната скачать торрент в хорошем качестве
    Комната смотреть онлайн бесплатно в хорошем качестве


    Вы не можете начинать темы
    Вы не можете отвечать на сообщения
    Вы не можете редактировать свои сообщения
    Вы не можете удалять свои сообщения
    Вы не можете голосовать в опросах
    Вы не можете прикреплять файлы к сообщениям
    Вы можете скачивать файлы